  0
SECTION
  2
HEADER
  9
$ACADVER
  1
AC1014
  9
$ACADMAINTVER
 70
         0
  9
$DWGCODEPAGE
  3
DOS850
  9
$INSBASE
 10
0.0
 20
0.0
 30
0.0
  9
$EXTMIN
 10
-0.793113013
 20
-16.5224810806
 30
0.0
  9
$EXTMAX
 10
9.1008081247
 20
-10.6327262741
 30
0.0
  9
$LIMMIN
 10
0.0
 20
0.0
  9
$LIMMAX
 10
0.0
 20
0.0
  9
$ORTHOMODE
 70
         0
  9
$REGENMODE
 70
         1
  9
$FILLMODE
 70
         1
  9
$QTEXTMODE
 70
         0
  9
$MIRRTEXT
 70
         1
  9
$DRAGMODE
 70
         2
  9
$LTSCALE
 40
1.0
  9
$OSMODE
 70
         0
  9
$ATTMODE
 70
         1
  9
$TEXTSIZE
 40
0.125
  9
$TRACEWID
 40
0.05
  9
$TEXTSTYLE
  7
STANDARD
  9
$CLAYER
  8
0
  9
$CELTYPE
  6
CONTINUOUS
  9
$CECOLOR
 62
         6
  9
$CELTSCALE
 40
1.0
  9
$DELOBJ
 70
         1
  9
$DISPSILH
 70
         0
  9
$DIMSCALE
 40
1.0
  9
$DIMASZ
 40
0.18
  9
$DIMEXO
 40
0.0625
  9
$DIMDLI
 40
0.38
  9
$DIMRND
 40
0.0
  9
$DIMDLE
 40
0.0
  9
$DIMEXE
 40
0.25
  9
$DIMTP
 40
0.01
  9
$DIMTM
 40
-0.01
  9
$DIMTXT
 40
0.125
  9
$DIMCEN
 40
0.09
  9
$DIMTSZ
 40
0.0
  9
$DIMTOL
 70
         0
  9
$DIMLIM
 70
         0
  9
$DIMTIH
 70
         1
  9
$DIMTOH
 70
         1
  9
$DIMSE1
 70
         0
  9
$DIMSE2
 70
         0
  9
$DIMTAD
 70
         0
  9
$DIMZIN
 70
         0
  9
$DIMBLK
  1

  9
$DIMASO
 70
         1
  9
$DIMSHO
 70
         1
  9
$DIMPOST
  1

  9
$DIMAPOST
  1

  9
$DIMALT
 70
         0
  9
$DIMALTD
 70
         2
  9
$DIMALTF
 40
25.4
  9
$DIMLFAC
 40
1.0
  9
$DIMTOFL
 70
         0
  9
$DIMTVP
 40
0.0
  9
$DIMTIX
 70
         0
  9
$DIMSOXD
 70
         0
  9
$DIMSAH
 70
         0
  9
$DIMBLK1
  1

  9
$DIMBLK2
  1

  9
$DIMSTYLE
  2
STANDARD
  9
$DIMCLRD
 70
         0
  9
$DIMCLRE
 70
         0
  9
$DIMCLRT
 70
         6
  9
$DIMTFAC
 40
1.0
  9
$DIMGAP
 40
0.09
  9
$DIMJUST
 70
         0
  9
$DIMSD1
 70
         0
  9
$DIMSD2
 70
         0
  9
$DIMTOLJ
 70
         1
  9
$DIMTZIN
 70
         0
  9
$DIMALTZ
 70
         0
  9
$DIMALTTZ
 70
         0
  9
$DIMFIT
 70
         3
  9
$DIMUPT
 70
         0
  9
$DIMUNIT
 70
         2
  9
$DIMDEC
 70
         4
  9
$DIMTDEC
 70
         4
  9
$DIMALTU
 70
         2
  9
$DIMALTTD
 70
         2
  9
$DIMTXSTY
  7
STANDARD
  9
$DIMAUNIT
 70
         0
  9
$LUNITS
 70
         2
  9
$LUPREC
 70
        10
  9
$SKETCHINC
 40
0.1
  9
$FILLETRAD
 40
0.0
  9
$AUNITS
 70
         0
  9
$AUPREC
 70
         0
  9
$MENU
  1
acad
  9
$ELEVATION
 40
0.0
  9
$PELEVATION
 40
0.0
  9
$THICKNESS
 40
0.0
  9
$LIMCHECK
 70
         0
  9
$BLIPMODE
 70
         1
  9
$CHAMFERA
 40
0.0
  9
$CHAMFERB
 40
0.0
  9
$CHAMFERC
 40
0.0
  9
$CHAMFERD
 40
0.0
  9
$SKPOLY
 70
         0
  9
$TDCREATE
 40
0.000000000
  9
$TDUPDATE
 40
0.000000000
  9
$TDINDWG
 40
0.0000000000
  9
$TDUSRTIMER
 40
0.0000000000
  9
$USRTIMER
 70
         1
  9
$ANGBASE
 50
0.0
  9
$ANGDIR
 70
         0
  9
$PDMODE
 70
         2
  9
$PDSIZE
 40
0.0
  9
$PLINEWID
 40
0.0
  9
$COORDS
 70
         0
  9
$SPLFRAME
 70
         0
  9
$SPLINETYPE
 70
         6
  9
$SPLINESEGS
 70
         8
  9
$ATTDIA
 70
         0
  9
$ATTREQ
 70
         1
  9
$HANDLING
 70
         1
  9
$HANDSEED
  5
140
  9
$SURFTAB1
 70
         6
  9
$SURFTAB2
 70
         6
  9
$SURFTYPE
 70
         6
  9
$SURFU
 70
         6
  9
$SURFV
 70
         6
  9
$UCSNAME
  2

  9
$UCSORG
 10
0.0
 20
0.0
 30
0.0
  9
$UCSXDIR
 10
1.0
 20
0.0
 30
0.0
  9
$UCSYDIR
 10
0.0
 20
1.0
 30
0.0
  9
$PUCSNAME
  2

  9
$PUCSORG
 10
0.0
 20
0.0
 30
0.0
  9
$PUCSXDIR
 10
1.0
 20
0.0
 30
0.0
  9
$PUCSYDIR
 10
0.0
 20
1.0
 30
0.0
  9
$USERI1
 70
         0
  9
$USERI2
 70
         0
  9
$USERI3
 70
         0
  9
$USERI4
 70
         0
  9
$USERI5
 70
         0
  9
$USERR1
 40
0.0
  9
$USERR2
 40
0.0
  9
$USERR3
 40
0.0
  9
$USERR4
 40
0.0
  9
$USERR5
 40
0.0
  9
$WORLDVIEW
 70
         1
  9
$SHADEDGE
 70
         3
  9
$SHADEDIF
 70
        70
  9
$TILEMODE
 70
         1
  9
$MAXACTVP
 70
        16
  9
$PINSBASE
 10
0.0
 20
0.0
 30
0.0
  9
$PLIMCHECK
 70
         0
  9
$PEXTMIN
 10
1.0000000000E+20
 20
1.0000000000E+20
 30
1.0000000000E+20
  9
$PEXTMAX
 10
-1.0000000000E+20
 20
-1.0000000000E+20
 30
-1.0000000000E+20
  9
$PLIMMIN
 10
0.0
 20
0.0
  9
$PLIMMAX
 10
12.0
 20
9.0
  9
$UNITMODE
 70
         0
  9
$VISRETAIN
 70
         0
  9
$PLINEGEN
 70
         1
  9
$PSLTSCALE
 70
         0
  9
$TREEDEPTH
 70
      3020
  9
$PICKSTYLE
 70
         1
  9
$CMLSTYLE
  2
STANDARD
  9
$CMLJUST
 70
         0
  9
$CMLSCALE
 40
1.0
  9
$PROXYGRAPHICS
 70
         0
  9
$MEASUREMENT
 70
         0
  0
ENDSEC
  0
SECTION
  2
CLASSES
  0
CLASS
  1
LWPOLYLINE
  2
AcDbPolyline
  3
"AutoCAD"
 90
        0
280
         0
281
         1
  0
CLASS
  1
IMAGE
  2
AcDbRasterImage
  3
ISM
 90
      127
280
         0
281
         1
  0
CLASS
  1
OLE2FRAME
  2
AcDbOle2Frame
  3
""
 90
        0
280
         0
281
         1
  0
CLASS
  1
HATCH
  2
AcDbHatch
  3
"ACAD_SEDONA"
 90
        0
280
         0
281
         1
  0
CLASS
  1
DICTIONARYVAR
  2
AcDbDictionaryVar
  3
"AutoCAD"
 90
        0
280
         0
281
         0
  0
CLASS
  1
RASTERVARIABLES
  2
AcDbRasterVariables
  3
ISM
 90
        0
280
         0
281
         0
  0
CLASS
  1
IMAGEDEF
  2
AcDbRasterImageDef
  3
ISM
 90
        0
280
         0
281
         0
  0
CLASS
  1
IMAGEDEF_REACTOR
  2
AcDbRasterImageDefReactor
  3
ISM
 90
        1
280
         0
281
         0
  0
CLASS
  1
IDBUFFER
  2
AcDbIdBuffer
  3
"Acad"
 90
        0
280
         0
281
         0
  0
CLASS
  1
SPATIAL_FILTER
  2
AcDbSpatialFilter
  3
"Acad"
 90
        0
280
         0
281
         0
  0
CLASS
  1
XRECORD
  2
AcDbXrecord
  3
"<Built In>"
 90
        0
280
         0
281
         0
  0
CLASS
  1
SORTENTSTABLE
  2
AcDbSortentsTable
  3
"AutoCAD"
 90
        0
280
         0
281
         0
  0
CLASS
  1
LAYER_INDEX
  2
AcDbLayerIndex
  3
"Acad"
 90
        0
280
         0
281
         0
  0
CLASS
  1
SPATIAL_INDEX
  2
AcDbSpatialIndex
  3
"Acad"
 90
        0
280
         0
281
         0
  0
CLASS
  1
OBJECT_PTR
  2
CAseDLPNTableRecord
  3
"ASE-LPNTableRecord"
 90
        1
280
         0
281
         0
  0
CLASS
  1
LAYOUT
  2
AcDbLayout
  3
"AutoCAD 2000"
 90
        1
280
         0
281
         0
  0
CLASS
  1
PLOTSETTINGS
  2
AcDbPlotSettings
  3
"AutoCAD 2000"
 90
        1
280
         0
281
         0
  0
CLASS
  1
ACDBDICTIONARYWDFLT
  2
AcDbDictionaryWithDefault
  3
"AutoCAD 2000"
 90
        1
280
         0
281
         0
  0
CLASS
  1
ACDBPLACEHOLDER
  2
AcDbPlaceHolder
  3
"AutoCAD 2000"
 90
        1
280
         0
281
         0
  0
CLASS
  1
VBA_PROJECT
  2
AcDbVbaProject
  3
"acadvba"
 90
        1
280
         0
281
         0
  0
CLASS
  1
WIPEOUT
  2
AcDbWipeout
  3
WipeOut|AutoCAD Express Tool|expresstools@autodesk.com
 90
      127
280
         0
281
         1
  0
CLASS
  1
WIPEOUTVARIABLES
  2
AcDbWipeoutVariables
  3
WipeOut|AutoCAD Express Tool|expresstools@autodesk.com
 90
        0
280
         0
281
         0
  0
CLASS
  1
RTEXT
  2
RText
  3
RText|AutoCAD Express Tool|expresstools@autodesk.com
 90
        0
280
         0
281
         1
  0
CLASS
  1
ARCALIGNEDTEXT
  2
AcDbArcAlignedText
  3
ATEXT|AutoCAD Express Tool|expresstools@autodesk.com
 90
        0
280
         0
281
         1
  0
ENDSEC
  0
SECTION
  2
TABLES
  0
TABLE
  2
VPORT
  5
7
100
AcDbSymbolTable
 70
         1
  0
VPORT
  5
15
100
AcDbSymbolTableRecord
100
AcDbViewportTableRecord
  2
*ACTIVE
 70
         0
 10
0.0
 20
0.0
 11
1.0
 21
1.0
 12
4.1538475559
 22
-13.5776036773
 13
0.0
 23
0.0
 14
1.0
 24
1.0
 15
0.0
 25
0.0
 16
0.0
 26
0.0
 36
1.0
 17
0.0
 27
0.0
 37
0.0
 40
5.8897548065
 41
1.6798528059
 42
50.0
 43
0.0
 44
0.0
 50
0.0
 51
0.0
 71
         0
 72
       100
 73
         1
 74
         1
 75
         0
 76
         0
 77
         0
 78
         0
  0
ENDTAB
  0
TABLE
  2
LTYPE
  5
4
100
AcDbSymbolTable
 70
         6
  0
LTYPE
  5
11
100
AcDbSymbolTableRecord
100
AcDbLinetypeTableRecord
  2
BYBLOCK
 70
        64
  3

 72
        65
 73
         0
 40
0.0
  0
LTYPE
  5
12
100
AcDbSymbolTableRecord
100
AcDbLinetypeTableRecord
  2
BYLAYER
 70
        64
  3

 72
        65
 73
         0
 40
0.0
  0
LTYPE
  5
13
100
AcDbSymbolTableRecord
100
AcDbLinetypeTableRecord
  2
CONTINUOUS
 70
        64
  3
Solid line
 72
        65
 73
         0
 40
0.0
  0
LTYPE
  5
1D
100
AcDbSymbolTableRecord
100
AcDbLinetypeTableRecord
  2
DASHED
 70
        64
  3
_ _ _ _ _ _ _ _ _ _ _ _ _ _ _ _
 72
        65
 73
         2
 40
0.2
 49
0.1
 74
         0
 49
-0.1
 74
         0
  0
LTYPE
  5
1E
100
AcDbSymbolTableRecord
100
AcDbLinetypeTableRecord
  2
CENTER
 70
        64
  3
___ _ ___ _ ___ _ ___ _ ___ _ ___ _ ___ _ ___ _
 72
        65
 73
         4
 40
0.95
 49
0.625
 74
         0
 49
-0.125
 74
         0
 49
0.075
 74
         0
 49
-0.125
 74
         0
  0
LTYPE
  5
1F
100
AcDbSymbolTableRecord
100
AcDbLinetypeTableRecord
  2
PHANTOM
 70
        64
  3
______  __  __  ______  __  __  ______  __  __  
 72
        65
 73
         6
 40
1.025
 49
0.625
 74
         0
 49
-0.125
 74
         0
 49
0.075
 74
         0
 49
-0.125
 74
         0
 49
0.075
 74
         0
 49
-0.125
 74
         0
  0
ENDTAB
  0
TABLE
  2
LAYER
  5
2
100
AcDbSymbolTable
 70
         4
  0
LAYER
  5
14
100
AcDbSymbolTableRecord
100
AcDbLayerTableRecord
  2
0
 70
         0
 62
         7
  6
CONTINUOUS
  0
LAYER
  5
21
100
AcDbSymbolTableRecord
100
AcDbLayerTableRecord
  2
CK_LEVEL_1
 70
         1
 62
         7
  6
CONTINUOUS
  0
LAYER
  5
22
100
AcDbSymbolTableRecord
100
AcDbLayerTableRecord
  2
HLR_VIEW_9
 70
         0
 62
         7
  6
CONTINUOUS
  0
LAYER
  5
FB
100
AcDbSymbolTableRecord
100
AcDbLayerTableRecord
  2
DEFPOINTS
 70
         0
 62
        -7
  6
CONTINUOUS
  0
ENDTAB
  0
TABLE
  2
STYLE
  5
3
100
AcDbSymbolTable
 70
         1
  0
STYLE
  5
17
100
AcDbSymbolTableRecord
100
AcDbTextStyleTableRecord
  2
STANDARD
 70
         0
 40
0.0
 41
1.0
 50
0.0
 71
         0
 42
0.0
  3
txt
  4

  0
ENDTAB
  0
TABLE
  2
VIEW
  5
5
100
AcDbSymbolTable
 70
         0
  0
ENDTAB
  0
TABLE
  2
UCS
  5
6
100
AcDbSymbolTable
 70
         1
  0
UCS
  5
20
100
AcDbSymbolTableRecord
100
AcDbUCSTableRecord
  2
CK_VIEW_1
 70
         0
 10
0.0
 20
0.0
 30
1.0
 11
1.0
 21
0.0
 31
0.0
 12
0.0
 22
1.0
 32
0.0
  0
ENDTAB
  0
TABLE
  2
APPID
  5
8
100
AcDbSymbolTable
 70
         1
  0
APPID
  5
16
100
AcDbSymbolTableRecord
100
AcDbRegAppTableRecord
  2
ACAD
 70
         0
  0
ENDTAB
  0
TABLE
  2
DIMSTYLE
  5
9
100
AcDbSymbolTable
 70
         2
  0
DIMSTYLE
105
18
100
AcDbSymbolTableRecord
100
AcDbDimStyleTableRecord
  2
STANDARD
 70
         0
  3

  4

  5

  6

  7

 40
1.0
 41
0.18
 42
0.0625
 43
0.38
 44
0.18
 45
0.0
 46
0.0
 47
0.0
 48
0.0
 71
         0
 72
         0
 73
         1
 74
         1
 75
         0
 76
         0
 77
         0
 78
         0
140
0.18
141
0.09
142
0.0
143
25.4
144
1.0
145
0.0
146
1.0
147
0.09
170
         0
171
         2
172
         0
173
         0
174
         0
175
         0
176
         0
177
         0
178
         0
270
         2
271
         4
272
         4
273
         2
274
         2
275
         0
280
         0
281
         0
282
         0
283
         1
284
         0
285
         0
286
         0
287
         0
288
         0
340
17
  0
DIMSTYLE
105
F7
100
AcDbSymbolTableRecord
100
AcDbDimStyleTableRecord
  2
DIMSTYLE1
 70
         0
  3

  4

  5

  6

  7

 40
1.0
 41
0.125
 42
0.0625
 43
0.38
 44
0.125
 45
0.0
 46
0.0
 47
0.0
 48
0.0
 71
         0
 72
         0
 73
         1
 74
         1
 75
         0
 76
         0
 77
         0
 78
         0
140
0.125
141
0.09
142
0.0
143
25.4
144
1.0
145
0.0
146
1.0
147
0.09
170
         0
171
         2
172
         0
173
         0
174
         0
175
         0
176
         0
177
         0
178
         0
270
         2
271
         4
272
         4
273
         2
274
         2
275
         0
280
         0
281
         0
282
         0
283
         1
284
         0
285
         0
286
         0
287
         0
288
         0
340
17
  0
ENDTAB
  0
TABLE
  2
BLOCK_RECORD
  5
1
100
AcDbSymbolTable
 70
         5
  0
BLOCK_RECORD
  5
A
100
AcDbSymbolTableRecord
100
AcDbBlockTableRecord
  2
*MODEL_SPACE
  0
BLOCK_RECORD
  5
B
100
AcDbSymbolTableRecord
100
AcDbBlockTableRecord
  2
*PAPER_SPACE
  0
BLOCK_RECORD
  5
F8
100
AcDbSymbolTableRecord
100
AcDbBlockTableRecord
  2
*D0
  0
BLOCK_RECORD
  5
109
100
AcDbSymbolTableRecord
100
AcDbBlockTableRecord
  2
*D1
  0
BLOCK_RECORD
  5
118
100
AcDbSymbolTableRecord
100
AcDbBlockTableRecord
  2
*D2
  0
BLOCK_RECORD
  5
127
100
AcDbSymbolTableRecord
100
AcDbBlockTableRecord
  2
*D3
  0
BLOCK_RECORD
  5
136
100
AcDbSymbolTableRecord
100
AcDbBlockTableRecord
  2
GENDIM6
  0
ENDTAB
  0
ENDSEC
  0
SECTION
  2
BLOCKS
  0
BLOCK
  5
D
100
AcDbEntity
  8
0
100
AcDbBlockBegin
  2
*MODEL_SPACE
 70
         0
 10
0.0
 20
0.0
 30
0.0
  3
*MODEL_SPACE
  1

  0
ENDBLK
  5
E
100
AcDbEntity
  8
0
100
AcDbBlockEnd
  0
BLOCK
  5
F
100
AcDbEntity
 67
         1
  8
0
100
AcDbBlockBegin
  2
*PAPER_SPACE
 70
         0
 10
0.0
 20
0.0
 30
0.0
  3
*PAPER_SPACE
  1

  0
ENDBLK
  5
10
100
AcDbEntity
 67
         1
  8
0
100
AcDbBlockEnd
  0
BLOCK
  5
F9
100
AcDbEntity
  8
0
100
AcDbBlockBegin
  2
*D0
 70
        65
 10
0.0
 20
0.0
 30
0.0
  3
*D0
  1

  0
POINT
  5
FC
100
AcDbEntity
  8
DEFPOINTS
  6
CONTINUOUS
 62
         0
100
AcDbPoint
 10
4.1047781813
 20
-14.6132846982
 30
0.0
  0
POINT
  5
FD
100
AcDbEntity
  8
DEFPOINTS
  6
CONTINUOUS
 62
         0
100
AcDbPoint
 10
3.0206106751
 20
-14.6132846982
 30
0.0
  0
POINT
  5
FE
100
AcDbEntity
  8
DEFPOINTS
  6
CONTINUOUS
 62
         0
100
AcDbPoint
 10
3.0206106751
 20
-15.5912846982
 30
0.0
  0
LINE
  5
FF
100
AcDbEntity
  8
HLR_VIEW_9
  6
CONTINUOUS
 62
         6
100
AcDbLine
 10
3.0831106751
 20
-14.6132846982
 30
0.0
 11
4.1360281813
 21
-14.6132846982
 31
0.0
  0
LINE
  5
100
100
AcDbEntity
  8
HLR_VIEW_9
  6
CONTINUOUS
 62
         6
100
AcDbLine
 10
3.0831106751
 20
-15.5912846982
 30
0.0
 11
4.1360281813
 21
-15.5912846982
 31
0.0
  0
LINE
  5
101
100
AcDbEntity
  8
HLR_VIEW_9
  6
CONTINUOUS
 62
         6
100
AcDbLine
 10
4.1047781813
 20
-14.6132846982
 30
0.0
 11
4.1047781813
 21
-14.8047891259
 31
0.0
  0
3DFACE
  5
102
100
AcDbEntity
  8
HLR_VIEW_9
  6
CONTINUOUS
 62
         6
100
AcDbFace
 10
4.1047781813
 20
-14.6132846982
 30
0.0
 11
4.1235281813
 21
-14.7382846982
 31
0.0
 12
4.0860281813
 22
-14.7382846982
 32
0.0
 13
4.0860281813
 23
-14.7382846982
 33
0.0
 70
         4
  0
LINE
  5
103
100
AcDbEntity
  8
HLR_VIEW_9
  6
CONTINUOUS
 62
         6
100
AcDbLine
 10
4.1047781813
 20
-15.5912846982
 30
0.0
 11
4.1047781813
 21
-15.2547891259
 31
0.0
  0
3DFACE
  5
104
100
AcDbEntity
  8
HLR_VIEW_9
  6
CONTINUOUS
 62
         6
100
AcDbFace
 10
4.1047781813
 20
-15.5912846982
 30
0.0
 11
4.0860281813
 21
-15.4662846982
 31
0.0
 12
4.1235281813
 22
-15.4662846982
 32
0.0
 13
4.1235281813
 23
-15.4662846982
 33
0.0
 70
         4
  0
TEXT
  5
105
100
AcDbEntity
  8
HLR_VIEW_9
  6
CONTINUOUS
 62
         6
100
AcDbText
 10
3.5422781813
 20
-14.9922891259
 30
0.0
 40
0.125
  1
   .978
100
AcDbText
  0
TEXT
  5
106
100
AcDbEntity
  8
HLR_VIEW_9
  6
CONTINUOUS
 62
         6
100
AcDbText
 10
3.5422781813
 20
-15.1922891259
 30
0.0
 40
0.125
  1
[24.84mm]
100
AcDbText
  0
ENDBLK
  5
107
100
AcDbEntity
  8
0
  6
CONTINUOUS
100
AcDbBlockEnd
  0
BLOCK
  5
10A
100
AcDbEntity
  8
0
100
AcDbBlockBegin
  2
*D1
 70
        65
 10
0.0
 20
0.0
 30
0.0
  3
*D1
  1

  0
POINT
  5
10C
100
AcDbEntity
  8
DEFPOINTS
  6
CONTINUOUS
 62
         0
100
AcDbPoint
 10
7.5647898385
 20
-14.5052846982
 30
0.0
  0
POINT
  5
10D
100
AcDbEntity
  8
DEFPOINTS
  6
CONTINUOUS
 62
         0
100
AcDbPoint
 10
6.8071106751
 20
-14.5052846982
 30
0.0
  0
POINT
  5
10E
100
AcDbEntity
  8
DEFPOINTS
  6
CONTINUOUS
 62
         0
100
AcDbPoint
 10
6.8071106751
 20
-15.6992846982
 30
0.0
  0
LINE
  5
10F
100
AcDbEntity
  8
HLR_VIEW_9
  6
CONTINUOUS
 62
         6
100
AcDbLine
 10
6.8696106751
 20
-14.5052846982
 30
0.0
 11
7.5960398385
 21
-14.5052846982
 31
0.0
  0
LINE
  5
110
100
AcDbEntity
  8
HLR_VIEW_9
  6
CONTINUOUS
 62
         6
100
AcDbLine
 10
6.8696106751
 20
-15.6992846982
 30
0.0
 11
7.5960398385
 21
-15.6992846982
 31
0.0
  0
LINE
  5
111
100
AcDbEntity
  8
HLR_VIEW_9
  6
CONTINUOUS
 62
         6
100
AcDbLine
 10
7.5647898385
 20
-14.5052846982
 30
0.0
 11
7.5647898385
 21
-14.8545026316
 31
0.0
  0
3DFACE
  5
112
100
AcDbEntity
  8
HLR_VIEW_9
  6
CONTINUOUS
 62
         6
100
AcDbFace
 10
7.5647898385
 20
-14.5052846982
 30
0.0
 11
7.5835398385
 21
-14.6302846982
 31
0.0
 12
7.5460398385
 22
-14.6302846982
 32
0.0
 13
7.5460398385
 23
-14.6302846982
 33
0.0
 70
         4
  0
LINE
  5
113
100
AcDbEntity
  8
HLR_VIEW_9
  6
CONTINUOUS
 62
         6
100
AcDbLine
 10
7.5647898385
 20
-15.6992846982
 30
0.0
 11
7.5647898385
 21
-15.3045026316
 31
0.0
  0
3DFACE
  5
114
100
AcDbEntity
  8
HLR_VIEW_9
  6
CONTINUOUS
 62
         6
100
AcDbFace
 10
7.5647898385
 20
-15.6992846982
 30
0.0
 11
7.5460398385
 21
-15.5742846982
 31
0.0
 12
7.5835398385
 22
-15.5742846982
 32
0.0
 13
7.5835398385
 23
-15.5742846982
 33
0.0
 70
         4
  0
TEXT
  5
115
100
AcDbEntity
  8
HLR_VIEW_9
  6
CONTINUOUS
 62
         6
100
AcDbText
 10
7.0022898385
 20
-15.0420026316
 30
0.0
 40
0.125
  1
  1.194
100
AcDbText
  0
TEXT
  5
116
100
AcDbEntity
  8
HLR_VIEW_9
  6
CONTINUOUS
 62
         6
100
AcDbText
 10
7.0022898385
 20
-15.2420026316
 30
0.0
 40
0.125
  1
[30.33mm]
100
AcDbText
  0
ENDBLK
  5
117
100
AcDbEntity
  8
0
  6
CONTINUOUS
100
AcDbBlockEnd
  0
BLOCK
  5
119
100
AcDbEntity
  8
0
100
AcDbBlockBegin
  2
*D2
 70
        65
 10
0.0
 20
0.0
 30
0.0
  3
*D2
  1

  0
POINT
  5
11B
100
AcDbEntity
  8
DEFPOINTS
  6
CONTINUOUS
 62
         0
100
AcDbPoint
 10
3.9911473111
 20
-13.0267846982
 30
0.0
  0
POINT
  5
11C
100
AcDbEntity
  8
DEFPOINTS
  6
CONTINUOUS
 62
         0
100
AcDbPoint
 10
2.9581106751
 20
-13.0267846982
 30
0.0
  0
POINT
  5
11D
100
AcDbEntity
  8
DEFPOINTS
  6
CONTINUOUS
 62
         0
100
AcDbPoint
 10
1.3386106751
 20
-11.6937846982
 30
0.0
  0
LINE
  5
11E
100
AcDbEntity
  8
HLR_VIEW_9
  6
CONTINUOUS
 62
         6
100
AcDbLine
 10
3.0206106751
 20
-13.0267846982
 30
0.0
 11
4.0223973111
 21
-13.0267846982
 31
0.0
  0
LINE
  5
11F
100
AcDbEntity
  8
HLR_VIEW_9
  6
CONTINUOUS
 62
         6
100
AcDbLine
 10
1.4011106751
 20
-11.6937846982
 30
0.0
 11
4.0223973111
 21
-11.6937846982
 31
0.0
  0
LINE
  5
120
100
AcDbEntity
  8
HLR_VIEW_9
  6
CONTINUOUS
 62
         6
100
AcDbLine
 10
3.9911473111
 20
-13.0267846982
 30
0.0
 11
3.9911473111
 21
-12.583091631
 31
0.0
  0
3DFACE
  5
121
100
AcDbEntity
  8
HLR_VIEW_9
  6
CONTINUOUS
 62
         6
100
AcDbFace
 10
3.9911473111
 20
-13.0267846982
 30
0.0
 11
3.9723973111
 21
-12.9017846982
 31
0.0
 12
4.0098973111
 22
-12.9017846982
 32
0.0
 13
4.0098973111
 23
-12.9017846982
 33
0.0
 70
         4
  0
LINE
  5
122
100
AcDbEntity
  8
HLR_VIEW_9
  6
CONTINUOUS
 62
         6
100
AcDbLine
 10
3.9911473111
 20
-11.6937846982
 30
0.0
 11
3.9911473111
 21
-12.133091631
 31
0.0
  0
3DFACE
  5
123
100
AcDbEntity
  8
HLR_VIEW_9
  6
CONTINUOUS
 62
         6
100
AcDbFace
 10
3.9911473111
 20
-11.6937846982
 30
0.0
 11
4.0098973111
 21
-11.8187846982
 31
0.0
 12
3.9723973111
 22
-11.8187846982
 32
0.0
 13
3.9723973111
 23
-11.8187846982
 33
0.0
 70
         4
  0
TEXT
  5
124
100
AcDbEntity
  8
HLR_VIEW_9
  6
CONTINUOUS
 62
         6
100
AcDbText
 10
3.4286473111
 20
-12.320591631
 30
0.0
 40
0.125
  1
  1.333
100
AcDbText
  0
TEXT
  5
125
100
AcDbEntity
  8
HLR_VIEW_9
  6
CONTINUOUS
 62
         6
100
AcDbText
 10
3.4286473111
 20
-12.520591631
 30
0.0
 40
0.125
  1
[33.86mm]
100
AcDbText
  0
ENDBLK
  5
126
100
AcDbEntity
  8
0
  6
CONTINUOUS
100
AcDbBlockEnd
  0
BLOCK
  5
128
100
AcDbEntity
  8
0
100
AcDbBlockBegin
  2
*D3
 70
        65
 10
0.0
 20
0.0
 30
0.0
  3
*D3
  1

  0
POINT
  5
12A
100
AcDbEntity
  8
DEFPOINTS
  6
CONTINUOUS
 62
         0
100
AcDbPoint
 10
-0.3433893249
 20
-13.7287640034
 30
0.0
  0
POINT
  5
12B
100
AcDbEntity
  8
DEFPOINTS
  6
CONTINUOUS
 62
         0
100
AcDbPoint
 10
-0.3433893249
 20
-12.9642846982
 30
0.0
  0
POINT
  5
12C
100
AcDbEntity
  8
DEFPOINTS
  6
CONTINUOUS
 62
         0
100
AcDbPoint
 10
3.0206106751
 20
-12.9642846982
 30
0.0
  0
LINE
  5
12D
100
AcDbEntity
  8
HLR_VIEW_9
  6
CONTINUOUS
 62
         6
100
AcDbLine
 10
-0.3433893249
 20
-13.0267846982
 30
0.0
 11
-0.3433893249
 21
-13.7600140034
 31
0.0
  0
LINE
  5
12E
100
AcDbEntity
  8
HLR_VIEW_9
  6
CONTINUOUS
 62
         6
100
AcDbLine
 10
3.0206106751
 20
-13.0267846982
 30
0.0
 11
3.0206106751
 21
-13.7600140034
 31
0.0
  0
LINE
  5
12F
100
AcDbEntity
  8
HLR_VIEW_9
  6
CONTINUOUS
 62
         6
100
AcDbLine
 10
-0.3433893249
 20
-13.7287640034
 30
0.0
 11
0.7384334366
 21
-13.7287640034
 31
0.0
  0
3DFACE
  5
130
100
AcDbEntity
  8
HLR_VIEW_9
  6
CONTINUOUS
 62
         6
100
AcDbFace
 10
-0.3433893249
 20
-13.7287640034
 30
0.0
 11
-0.2183893249
 21
-13.7100140034
 31
0.0
 12
-0.2183893249
 22
-13.7475140034
 32
0.0
 13
-0.2183893249
 23
-13.7475140034
 33
0.0
 70
         4
  0
LINE
  5
131
100
AcDbEntity
  8
HLR_VIEW_9
  6
CONTINUOUS
 62
         6
100
AcDbLine
 10
3.0206106751
 20
-13.7287640034
 30
0.0
 11
1.9884334366
 21
-13.7287640034
 31
0.0
  0
3DFACE
  5
132
100
AcDbEntity
  8
HLR_VIEW_9
  6
CONTINUOUS
 62
         6
100
AcDbFace
 10
3.0206106751
 20
-13.7287640034
 30
0.0
 11
2.8956106751
 21
-13.7475140034
 31
0.0
 12
2.8956106751
 22
-13.7100140034
 32
0.0
 13
2.8956106751
 23
-13.7100140034
 33
0.0
 70
         4
  0
TEXT
  5
133
100
AcDbEntity
  8
HLR_VIEW_9
  6
CONTINUOUS
 62
         6
100
AcDbText
 10
0.8009334366
 20
-13.6912640034
 30
0.0
 40
0.125
  1
  3.364
100
AcDbText
  0
TEXT
  5
134
100
AcDbEntity
  8
HLR_VIEW_9
  6
CONTINUOUS
 62
         6
100
AcDbText
 10
0.8009334366
 20
-13.8912640034
 30
0.0
 40
0.125
  1
[85.45mm]
100
AcDbText
  0
ENDBLK
  5
135
100
AcDbEntity
  8
0
  6
CONTINUOUS
100
AcDbBlockEnd
  0
BLOCK
  5
137
100
AcDbEntity
  8
0
100
AcDbBlockBegin
  2
GENDIM6
 70
        64
 10
0.0
 20
0.0
 30
0.0
  3
GENDIM6
  1

  0
LINE
  5
138
100
AcDbEntity
  8
HLR_VIEW_9
  6
CONTINUOUS
 62
         6
100
AcDbLine
 10
2.4224933881
 20
-10.9883479783
 30
0.0
 11
2.1724933881
 21
-10.9883479783
 31
0.0
  0
LINE
  5
139
100
AcDbEntity
  8
HLR_VIEW_9
  6
CONTINUOUS
 62
         6
100
AcDbLine
 10
2.1724933881
 20
-10.9883479783
 30
0.0
 11
1.4663421428
 21
-11.82025477
 31
0.0
  0
3DFACE
  5
13A
100
AcDbEntity
  8
HLR_VIEW_9
  6
CONTINUOUS
 62
         6
100
AcDbFace
 10
1.4663421428
 20
-11.82025477
 30
0.0
 11
1.5329391197
 21
-11.7128238379
 31
0.0
 12
1.5615282793
 22
-11.7370913049
 32
0.0
 13
1.5615282793
 23
-11.7370913049
 33
0.0
 70
         4
  0
TEXT
  5
13B
100
AcDbEntity
  8
HLR_VIEW_9
  6
CONTINUOUS
 62
         6
100
AcDbText
 10
2.4849933881
 20
-11.0508479783
 30
0.0
 40
0.125
  1
3/8" INTERNAL THREAD
100
AcDbText
  0
TEXT
  5
13C
100
AcDbEntity
  8
HLR_VIEW_9
  6
CONTINUOUS
 62
         6
100
AcDbText
 10
2.4849933881
 20
-11.2508479783
 30
0.0
 40
0.125
  1
FAR SIDE
100
AcDbText
  0
ENDBLK
  5
13D
100
AcDbEntity
  8
0
  6
CONTINUOUS
100
AcDbBlockEnd
  0
ENDSEC
  0
SECTION
  2
ENTITIES
  0
LINE
  5
23
100
AcDbEntity
  8
HLR_VIEW_9
  6
CONTINUOUS
 62
         3
100
AcDbLine
 10
5.5016689675
 20
-11.9936824749
 30
0.732018973
 11
5.5016689675
 21
-12.0586736389
 31
0.6871062955
  0
LINE
  5
24
100
AcDbEntity
  8
HLR_VIEW_9
  6
CONTINUOUS
 62
         3
100
AcDbLine
 10
8.6510844366
 20
-12.7900790477
 30
1.7454909541
 11
8.6510844366
 21
-12.7250878837
 31
1.7904036316
  0
LINE
  5
25
100
AcDbEntity
  8
HLR_VIEW_9
  6
CONTINUOUS
 62
         3
100
AcDbLine
 10
6.4948117417
 20
-12.4421128663
 30
0.1754597291
 11
6.4948117417
 21
-12.6178985117
 31
0.0539816155
  0
LINE
  5
26
100
AcDbEntity
  8
HLR_VIEW_9
  6
CONTINUOUS
 62
         3
100
AcDbLine
 10
6.7288117417
 20
-12.6178985117
 30
0.0539816155
 11
6.7288117417
 21
-12.5278939985
 31
0.1161799734
  0
LINE
  5
27
100
AcDbEntity
  8
HLR_VIEW_9
  6
CONTINUOUS
 62
         3
100
AcDbLine
 10
7.9218615605
 20
-12.9652494007
 30
0.9324676426
 11
7.9218615605
 21
-13.1410350461
 31
0.810989529
  0
LINE
  5
28
100
AcDbEntity
  8
HLR_VIEW_9
  6
CONTINUOUS
 62
         3
100
AcDbLine
 10
8.1558615605
 20
-13.1410350461
 30
0.810989529
 11
8.1558615605
 21
-13.0510305329
 31
0.8731878869
  0
LINE
  5
29
100
AcDbEntity
  8
HLR_VIEW_9
  6
CONTINUOUS
 62
         3
100
AcDbLine
 10
5.5016689675
 20
-12.7332654678
 30
0.2209240731
 11
5.5016689675
 21
-12.7982566318
 31
0.1760113956
  0
LINE
  5
2A
100
AcDbEntity
  8
HLR_VIEW_9
  6
CONTINUOUS
 62
         3
100
AcDbLine
 10
8.6510844366
 20
-13.5296620405
 30
1.2343960542
 11
8.6510844366
 21
-13.4646708765
 31
1.2793087317
  0
LINE
  5
2B
100
AcDbEntity
  8
HLR_VIEW_9
  6
CONTINUOUS
 62
         3
100
AcDbLine
 10
7.7531727162
 20
-12.040399216
 30
0.7996207181
 11
7.7531727162
 21
-11.9515505361
 31
0.8610203279
  0
LINE
  5
2C
100
AcDbEntity
  8
HLR_VIEW_9
  6
CONTINUOUS
 62
         3
100
AcDbLine
 10
7.1231727162
 20
-11.9515505361
 30
0.8610203279
 11
7.1231727162
 21
-12.040399216
 31
0.7996207181
  0
LINE
  5
2D
100
AcDbEntity
  8
HLR_VIEW_9
  6
CONTINUOUS
 62
         3
100
AcDbLine
 10
7.1621727162
 20
-12.6867580797
 30
0.352949118
 11
7.1621727162
 21
-12.7799822088
 31
0.2885258182
  0
LINE
  5
2E
100
AcDbEntity
  8
HLR_VIEW_9
  6
CONTINUOUS
 62
         3
100
AcDbLine
 10
5.8912249588
 20
-12.3804264978
 30
-0.0856133262
 11
5.5889616469
 21
-12.7423541178
 31
0.2340758596
  0
LINE
  5
2F
100
AcDbEntity
  8
HLR_VIEW_9
  6
CONTINUOUS
 62
         3
100
AcDbLine
 10
5.6435895847
 20
-12.7623799569
 30
0.2630543721
 11
5.9458528965
 21
-12.4004523368
 31
-0.0566348137
  0
LINE
  5
30
100
AcDbEntity
  8
HLR_VIEW_9
  6
CONTINUOUS
 62
         3
100
AcDbLine
 10
5.8912249588
 20
-12.3804264978
 30
-0.0856133262
 11
5.9458528965
 21
-12.4004523368
 31
-0.0566348137
  0
LINE
  5
31
100
AcDbEntity
  8
HLR_VIEW_9
  6
CONTINUOUS
 62
         3
100
AcDbLine
 10
5.9458528965
 20
-12.4004523368
 30
-0.0566348137
 11
5.9458528965
 21
-12.4958824004
 31
-0.1225825427
  0
LINE
  5
32
100
AcDbEntity
  8
HLR_VIEW_9
  6
CONTINUOUS
 62
         3
100
AcDbLine
 10
5.5116421044
 20
-11.9744268605
 30
0.7041550186
 11
5.8139054162
 21
-11.707929304
 31
0.3185181038
  0
LINE
  5
33
100
AcDbEntity
  8
HLR_VIEW_9
  6
CONTINUOUS
 62
         3
100
AcDbLine
 10
8.6411112998
 20
-12.7443434982
 30
1.8182675861
 11
8.338847988
 21
-13.0108410546
 31
2.2039045009
  0
LINE
  5
34
100
AcDbEntity
  8
HLR_VIEW_9
  6
CONTINUOUS
 62
         3
100
AcDbLine
 10
7.7531727162
 20
-11.975529594
 30
0.7057507359
 11
8.6399966584
 21
-12.7048833291
 31
1.7611665076
  0
LINE
  5
35
100
AcDbEntity
  8
HLR_VIEW_9
  6
CONTINUOUS
 62
         3
100
AcDbLine
 10
8.252451099
 20
-13.0214477448
 30
2.2192529766
 11
5.5302989418
 21
-12.0235447796
 31
0.7752314031
  0
LINE
  5
36
100
AcDbEntity
  8
HLR_VIEW_9
  6
CONTINUOUS
 62
         3
100
AcDbLine
 10
8.338847988
 20
-13.0758322186
 30
2.1589918234
 11
8.6411112998
 21
-12.8093346622
 31
1.7733549085
  0
LINE
  5
37
100
AcDbEntity
  8
HLR_VIEW_9
  6
CONTINUOUS
 62
         3
100
AcDbLine
 10
5.5302989418
 20
-12.0885359436
 30
0.7303187256
 11
8.252451099
 21
-13.0864389088
 31
2.1743402991
  0
LINE
  5
38
100
AcDbEntity
  8
HLR_VIEW_9
  6
CONTINUOUS
 62
         3
100
AcDbLine
 10
5.8775896685
 20
-11.6922235044
 30
0.2957909306
 11
7.2075710433
 21
-11.8294073139
 31
0.494303599
  0
LINE
  5
39
100
AcDbEntity
  8
HLR_VIEW_9
  6
CONTINUOUS
 62
         3
100
AcDbLine
 10
5.5302989418
 20
-12.0885359436
 30
0.7303187256
 11
5.5302989418
 21
-12.0235447796
 31
0.7752314031
  0
ARC
  5
3A
100
AcDbEntity
  8
HLR_VIEW_9
  6
CONTINUOUS
 62
         3
100
AcDbCircle
 10
-5.5641689675
 20
7.4207994738
 30
-9.5297145897
 40
0.0625
210
0.0
220
0.8226729619911745
230
0.5685149053531206
100
AcDbArc
 50
0.0000000002
 51
57.1855344494
  0
ARC
  5
3B
100
AcDbEntity
  8
HLR_VIEW_9
  6
CONTINUOUS
 62
         3
100
AcDbCircle
 10
5.5641689675
 20
7.4207994738
 30
9.4507145897
 40
0.0625
210
0.0
220
-0.8226729619911745
230
-0.5685149053531206
100
AcDbArc
 50
122.8144655506
 51
179.9999999998
  0
ARC
  5
3C
100
AcDbEntity
  8
HLR_VIEW_9
  6
CONTINUOUS
 62
         3
100
AcDbCircle
 10
5.5641689675
 20
7.4207994738
 30
9.4507145897
 40
0.0625
210
0.0
220
-0.8226729619911745
230
-0.5685149053531206
100
AcDbArc
 50
179.9999999998
 51
212.8144655506
  0
ARC
  5
3D
100
AcDbEntity
  8
HLR_VIEW_9
  6
CONTINUOUS
 62
         3
100
AcDbCircle
 10
5.8664322793
 20
6.9520385778
 30
9.4507145897
 40
0.0625
210
0.0
220
-0.8226729619911745
230
-0.5685149053531206
100
AcDbArc
 50
212.8144655511
 51
280.2834625354
  0
ARC
  5
3E
100
AcDbEntity
  8
HLR_VIEW_9
  6
CONTINUOUS
 62
         3
100
AcDbCircle
 10
-8.5885844366
 20
8.7073187926
 30
-9.5297145897
 40
0.0625
210
0.0
220
0.8226729619911745
230
0.5685149053531206
100
AcDbArc
 50
147.1855344493
 51
180.0000000002
  0
LINE
  5
3F
100
AcDbEntity
  8
HLR_VIEW_9
  6
CONTINUOUS
 62
         3
100
AcDbLine
 10
8.6411112998
 20
-12.7443434982
 30
1.8182675861
 11
8.6411112998
 21
-12.8093346622
 31
1.7733549085
  0
ARC
  5
40
100
AcDbEntity
  8
HLR_VIEW_9
  6
CONTINUOUS
 62
         3
100
AcDbCircle
 10
8.5885844366
 20
8.7073187926
 30
9.4507145897
 40
0.0625
210
0.0
220
-0.8226729619911745
230
-0.5685149053531206
100
AcDbArc
 50
325.3454685663
 51
359.9999999998
  0
ARC
  5
41
100
AcDbEntity
  8
HLR_VIEW_9
  6
CONTINUOUS
 62
         3
100
AcDbCircle
 10
8.5885844366
 20
8.7073187926
 30
9.4507145897
 40
0.0625
210
0.0
220
-0.8226729619911745
230
-0.5685149053531206
100
AcDbArc
 50
359.9999999998
 51
392.8144655507
  0
LINE
  5
42
100
AcDbEntity
  8
HLR_VIEW_9
  6
CONTINUOUS
 62
         3
100
AcDbLine
 10
8.338847988
 20
-13.0758322186
 30
2.1589918234
 11
8.338847988
 21
-13.0108410546
 31
2.2039045009
  0
ARC
  5
43
100
AcDbEntity
  8
HLR_VIEW_9
  6
CONTINUOUS
 62
         3
100
AcDbCircle
 10
-8.2863211248
 20
9.1760796887
 30
-9.5297145897
 40
0.0625
210
0.0
220
0.8226729619911745
230
0.5685149053531206
100
AcDbArc
 50
57.1855344489
 51
147.1855344489
  0
LINE
  5
44
100
AcDbEntity
  8
HLR_VIEW_9
  6
CONTINUOUS
 62
         3
100
AcDbLine
 10
8.252451099
 20
-13.0214477448
 30
2.2192529766
 11
8.252451099
 21
-13.0864389088
 31
2.1743402991
  0
ARC
  5
45
100
AcDbEntity
  8
HLR_VIEW_9
  6
CONTINUOUS
 62
         3
100
AcDbCircle
 10
8.2863211248
 20
9.1760796887
 30
9.4507145897
 40
0.0625
210
0.0
220
-0.8226729619911745
230
-0.5685149053531206
100
AcDbArc
 50
32.8144655511
 51
122.8144655511
  0
ARC
  5
46
100
AcDbEntity
  8
HLR_VIEW_9
  6
CONTINUOUS
 62
         3
100
AcDbCircle
 10
6.6118117417
 20
7.2178725937
 30
9.4507145897
 40
0.0575
210
0.0
220
-0.8226729619911745
230
-0.5685149053531206
100
AcDbArc
 50
212.8144655509
 51
360.0000000001
  0
ARC
  5
47
100
AcDbEntity
  8
HLR_VIEW_9
  6
CONTINUOUS
 62
         3
100
AcDbCircle
 10
6.6118117417
 20
7.2178725937
 30
9.4507145897
 40
0.0575
210
0.0
220
-0.8226729619911745
230
-0.5685149053531206
100
AcDbArc
 50
0.0000000001
 51
180.0000000001
  0
ARC
  5
48
100
AcDbEntity
  8
HLR_VIEW_9
  6
CONTINUOUS
 62
         3
100
AcDbCircle
 10
6.6118117417
 20
7.2178725937
 30
9.4507145897
 40
0.0575
210
0.0
220
-0.8226729619911745
230
-0.5685149053531206
100
AcDbArc
 50
180.0000000001
 51
212.8144655509
  0
ARC
  5
49
100
AcDbEntity
  8
HLR_VIEW_9
  6
CONTINUOUS
 62
         3
100
AcDbCircle
 10
8.0388615605
 20
8.1380534534
 30
9.4507145897
 40
0.0575
210
0.0
220
-0.8226729619911745
230
-0.5685149053531206
100
AcDbArc
 50
212.8144655509
 51
360.0000000001
  0
ARC
  5
4A
100
AcDbEntity
  8
HLR_VIEW_9
  6
CONTINUOUS
 62
         3
100
AcDbCircle
 10
8.0388615605
 20
8.1380534534
 30
9.4507145897
 40
0.0575
210
0.0
220
-0.8226729619911745
230
-0.5685149053531206
100
AcDbArc
 50
0.0000000001
 51
180.0000000001
  0
ARC
  5
4B
100
AcDbEntity
  8
HLR_VIEW_9
  6
CONTINUOUS
 62
         3
100
AcDbCircle
 10
8.0388615605
 20
8.1380534534
 30
9.4507145897
 40
0.0575
210
0.0
220
-0.8226729619911745
230
-0.5685149053531206
100
AcDbArc
 50
180.0000000001
 51
212.8144655509
  0
LINE
  5
4C
100
AcDbEntity
  8
HLR_VIEW_9
  6
CONTINUOUS
 62
         3
100
AcDbLine
 10
8.5637917572
 20
-13.3601521629
 30
1.3321046743
 11
8.2615284454
 21
-13.7220797829
 31
1.6517938601
  0
LINE
  5
4D
100
AcDbEntity
  8
HLR_VIEW_9
  6
CONTINUOUS
 62
         3
100
AcDbLine
 10
8.2069005077
 20
-13.7020539439
 30
1.6228153475
 11
8.5091638195
 21
-13.3401263238
 31
1.3031261617
  0
LINE
  5
4E
100
AcDbEntity
  8
HLR_VIEW_9
  6
CONTINUOUS
 62
         3
100
AcDbLine
 10
8.5637917572
 20
-13.4555822265
 30
1.2661569452
 11
8.5637917572
 21
-13.3601521629
 31
1.3321046743
  0
LINE
  5
4F
100
AcDbEntity
  8
HLR_VIEW_9
  6
CONTINUOUS
 62
         3
100
AcDbLine
 10
8.5637917572
 20
-13.3601521629
 30
1.3321046743
 11
8.5091638195
 21
-13.3401263238
 31
1.3031261617
  0
LINE
  5
50
100
AcDbEntity
  8
HLR_VIEW_9
  6
CONTINUOUS
 62
         3
100
AcDbLine
 10
8.6411112998
 20
-13.548917655
 30
1.2622600086
 11
8.338847988
 21
-13.8154152115
 31
1.6478969234
  0
LINE
  5
51
100
AcDbEntity
  8
HLR_VIEW_9
  6
CONTINUOUS
 62
         3
100
AcDbLine
 10
8.252451099
 20
-13.8260219016
 30
1.6632453991
 11
5.5302989418
 21
-12.8281189364
 31
0.2192238257
  0
LINE
  5
52
100
AcDbEntity
  8
HLR_VIEW_9
  6
CONTINUOUS
 62
         3
100
AcDbLine
 10
5.5302989418
 20
-12.7631277724
 30
0.2641365032
 11
5.5302989418
 21
-12.8281189364
 31
0.2192238257
  0
ARC
  5
53
100
AcDbEntity
  8
HLR_VIEW_9
  6
CONTINUOUS
 62
         3
100
AcDbCircle
 10
5.5641689675
 20
7.4207994738
 30
10.4287145897
 40
0.0625
210
0.0
220
-0.8226729619911745
230
-0.5685149053531206
100
AcDbArc
 50
122.8144655506
 51
179.9999999998
  0
LINE
  5
54
100
AcDbEntity
  8
HLR_VIEW_9
  6
CONTINUOUS
 62
         3
100
AcDbLine
 10
8.6411112998
 20
-13.548917655
 30
1.2622600086
 11
8.6411112998
 21
-13.483926491
 31
1.3071726861
  0
ARC
  5
55
100
AcDbEntity
  8
HLR_VIEW_9
  6
CONTINUOUS
 62
         3
100
AcDbCircle
 10
8.5885844366
 20
8.7073187926
 30
10.4287145897
 40
0.0625
210
0.0
220
-0.8226729619911745
230
-0.5685149053531206
100
AcDbArc
 50
359.9999999998
 51
392.8144655507
  0
LINE
  5
56
100
AcDbEntity
  8
HLR_VIEW_9
  6
CONTINUOUS
 62
         3
100
AcDbLine
 10
8.252451099
 20
-13.8260219016
 30
1.6632453991
 11
8.252451099
 21
-13.7610307376
 31
1.7081580767
  0
LINE
  5
57
100
AcDbEntity
  8
HLR_VIEW_9
  6
CONTINUOUS
 62
         3
100
AcDbLine
 10
8.338847988
 20
-13.7504240475
 30
1.692809601
 11
8.338847988
 21
-13.8154152115
 31
1.6478969234
  0
ARC
  5
58
100
AcDbEntity
  8
HLR_VIEW_9
  6
CONTINUOUS
 62
         3
100
AcDbCircle
 10
8.2863211248
 20
9.1760796887
 30
10.4287145897
 40
0.0625
210
0.0
220
-0.8226729619911745
230
-0.5685149053531206
100
AcDbArc
 50
32.8144655511
 51
122.8144655511
  0
LINE
  5
59
100
AcDbEntity
  8
HLR_VIEW_9
  6
CONTINUOUS
 62
         3
100
AcDbLine
 10
5.5302989418
 20
-12.7631277724
 30
0.2641365032
 11
8.252451099
 21
-13.7610307376
 31
1.7081580767
  0
ARC
  5
5A
100
AcDbEntity
  8
HLR_VIEW_9
  6
CONTINUOUS
 62
         3
100
AcDbCircle
 10
-5.5641689675
 20
7.4207994738
 30
-10.3497145897
 40
0.0625
210
0.0
220
0.8226729619911745
230
0.5685149053531206
100
AcDbArc
 50
327.1855344494
 51
360.0000000002
  0
ARC
  5
5B
100
AcDbEntity
  8
HLR_VIEW_9
  6
CONTINUOUS
 62
         3
100
AcDbCircle
 10
-5.5641689675
 20
7.4207994738
 30
-10.3497145897
 40
0.0625
210
0.0
220
0.8226729619911745
230
0.5685149053531206
100
AcDbArc
 50
0.0000000002
 51
57.1855344494
  0
LINE
  5
5C
100
AcDbEntity
  8
HLR_VIEW_9
  6
CONTINUOUS
 62
         3
100
AcDbLine
 10
5.8139054162
 20
-12.4475122968
 30
-0.1925767962
 11
5.5116421044
 21
-12.7140098533
 31
0.1930601187
  0
ARC
  5
5D
100
AcDbEntity
  8
HLR_VIEW_9
  6
CONTINUOUS
 62
         3
100
AcDbCircle
 10
-5.8664322793
 20
6.9520385778
 30
-10.3497145897
 40
0.0625
210
0.0
220
0.8226729619911745
230
0.5685149053531206
100
AcDbArc
 50
287.8568706596
 51
327.1855344489
  0
LINE
  5
5E
100
AcDbEntity
  8
HLR_VIEW_9
  6
CONTINUOUS
 62
         3
100
AcDbLine
 10
6.4948117417
 20
-12.4954712048
 30
-0.1231775659
 11
5.9458528965
 21
-12.4388476557
 31
-0.205115018
  0
LINE
  5
5F
100
AcDbEntity
  8
HLR_VIEW_9
  6
CONTINUOUS
 62
         3
100
AcDbLine
 10
8.6399966584
 20
-13.4444663219
 30
1.2500716077
 11
8.5637917572
 21
-13.3817928569
 31
1.1593795878
  0
LINE
  5
60
100
AcDbEntity
  8
HLR_VIEW_9
  6
CONTINUOUS
 62
         3
100
AcDbLine
 10
8.5163182167
 20
-13.342749026
 30
1.1028809741
 11
8.1662447328
 21
-13.0548368588
 31
0.6862559163
  0
ARC
  5
61
100
AcDbEntity
  8
HLR_VIEW_9
  6
CONTINUOUS
 62
         3
100
AcDbCircle
 10
-8.5885844366
 20
8.7073187926
 30
-10.3497145897
 40
0.0625
210
0.0
220
0.8226729619911745
230
0.5685149053531206
100
AcDbArc
 50
147.1855344493
 51
180.0000000002
  0
ARC
  5
62
100
AcDbEntity
  8
HLR_VIEW_9
  6
CONTINUOUS
 62
         3
100
AcDbCircle
 10
-8.5885844366
 20
8.7073187926
 30
-10.3497145897
 40
0.0625
210
0.0
220
0.8226729619911745
230
0.5685149053531206
100
AcDbArc
 50
180.0000000002
 51
214.6545314337
  0
LINE
  5
63
100
AcDbEntity
  8
HLR_VIEW_9
  6
CONTINUOUS
 62
         3
100
AcDbLine
 10
8.338847988
 20
-13.7504240475
 30
1.692809601
 11
8.6411112998
 21
-13.483926491
 31
1.3071726861
  0
ARC
  5
64
100
AcDbEntity
  8
HLR_VIEW_9
  6
CONTINUOUS
 62
         3
100
AcDbCircle
 10
-8.2863211248
 20
9.1760796887
 30
-10.3497145897
 40
0.0625
210
0.0
220
0.8226729619911745
230
0.5685149053531206
100
AcDbArc
 50
57.1855344489
 51
147.1855344489
  0
LINE
  5
65
100
AcDbEntity
  8
HLR_VIEW_9
  6
CONTINUOUS
 62
         3
100
AcDbLine
 10
8.2615284454
 20
-13.7220797829
 30
1.6517938601
 11
8.5637917572
 21
-13.4555822265
 31
1.2661569452
  0
LINE
  5
66
100
AcDbEntity
  8
HLR_VIEW_9
  6
CONTINUOUS
 62
         3
100
AcDbLine
 10
8.2615284454
 20
-13.7220797829
 30
1.6517938601
 11
8.2069005077
 21
-13.7020539439
 31
1.6228153475
  0
ARC
  5
67
100
AcDbEntity
  8
HLR_VIEW_9
  6
CONTINUOUS
 62
         3
100
AcDbCircle
 10
-6.6118117417
 20
7.2178725937
 30
-10.3497145897
 40
0.117
210
0.0
220
0.8226729619911745
230
0.5685149053531206
100
AcDbArc
 50
147.1855344491
 51
179.9999999999
  0
ARC
  5
68
100
AcDbEntity
  8
HLR_VIEW_9
  6
CONTINUOUS
 62
         3
100
AcDbCircle
 10
-6.6118117417
 20
7.2178725937
 30
-10.3497145897
 40
0.117
210
0.0
220
0.8226729619911745
230
0.5685149053531206
100
AcDbArc
 50
359.9999999999
 51
507.1855344491
  0
ARC
  5
69
100
AcDbEntity
  8
HLR_VIEW_9
  6
CONTINUOUS
 62
         3
100
AcDbCircle
 10
-8.0388615605
 20
8.1380534534
 30
-10.3497145897
 40
0.117
210
0.0
220
0.8226729619911745
230
0.5685149053531206
100
AcDbArc
 50
147.1855344491
 51
179.9999999999
  0
ARC
  5
6A
100
AcDbEntity
  8
HLR_VIEW_9
  6
CONTINUOUS
 62
         3
100
AcDbCircle
 10
-8.0388615605
 20
8.1380534534
 30
-10.3497145897
 40
0.117
210
0.0
220
0.8226729619911745
230
0.5685149053531206
100
AcDbArc
 50
359.9999999999
 51
507.1855344491
  0
LINE
  5
6B
100
AcDbEntity
  8
HLR_VIEW_9
  6
CONTINUOUS
 62
         3
100
AcDbLine
 10
5.9458528965
 20
-12.4958824004
 30
-0.1225825427
 11
5.6435895847
 21
-12.7623799569
 31
0.2630543721
  0
LINE
  5
6C
100
AcDbEntity
  8
HLR_VIEW_9
  6
CONTINUOUS
 62
         3
100
AcDbLine
 10
5.5889616469
 20
-12.7423541178
 30
0.2340758596
 11
5.6435895847
 21
-12.7623799569
 31
0.2630543721
  0
ARC
  5
6D
100
AcDbEntity
  8
HLR_VIEW_9
  6
CONTINUOUS
 62
         3
100
AcDbCircle
 10
7.4381727162
 20
7.5029727653
 30
9.4507145897
 40
0.315
210
0.0
220
-0.8226729619911745
230
-0.5685149053531206
100
AcDbArc
 50
32.8144655509
 51
180.0000000001
  0
ARC
  5
6E
100
AcDbEntity
  8
HLR_VIEW_9
  6
CONTINUOUS
 62
         3
100
AcDbCircle
 10
7.4381727162
 20
7.5029727653
 30
9.4507145897
 40
0.315
210
0.0
220
-0.8226729619911745
230
-0.5685149053531206
100
AcDbArc
 50
0.0000000001
 51
32.8144655509
  0
ARC
  5
6F
100
AcDbEntity
  8
HLR_VIEW_9
  6
CONTINUOUS
 62
         3
100
AcDbCircle
 10
7.4381727162
 20
7.5029727653
 30
9.3427145897
 40
0.315
210
0.0
220
-0.8226729619911745
230
-0.5685149053531206
100
AcDbArc
 50
32.8144655509
 51
180.0000000001
  0
ARC
  5
70
100
AcDbEntity
  8
HLR_VIEW_9
  6
CONTINUOUS
 62
         3
100
AcDbCircle
 10
7.4381727162
 20
7.5029727653
 30
9.3427145897
 40
0.315
210
0.0
220
-0.8226729619911745
230
-0.5685149053531206
100
AcDbArc
 50
180.0000000001
 51
360.0000000001
  0
ARC
  5
71
100
AcDbEntity
  8
HLR_VIEW_9
  6
CONTINUOUS
 62
         3
100
AcDbCircle
 10
7.4381727162
 20
7.5029727653
 30
9.3427145897
 40
0.315
210
0.0
220
-0.8226729619911745
230
-0.5685149053531206
100
AcDbArc
 50
0.0000000001
 51
32.8144655509
  0
ARC
  5
72
100
AcDbEntity
  8
HLR_VIEW_9
  6
CONTINUOUS
 62
         3
100
AcDbCircle
 10
7.4381727162
 20
7.5029727653
 30
9.3427145897
 40
0.2375
210
0.0
220
-0.8226729619911745
230
-0.5685149053531206
100
AcDbArc
 50
32.8144655509
 51
180.0000000001
  0
ARC
  5
73
100
AcDbEntity
  8
HLR_VIEW_9
  6
CONTINUOUS
 62
         3
100
AcDbCircle
 10
7.4381727162
 20
7.5029727653
 30
9.3427145897
 40
0.2375
210
0.0
220
-0.8226729619911745
230
-0.5685149053531206
100
AcDbArc
 50
180.0000000001
 51
360.0000000001
  0
ARC
  5
74
100
AcDbEntity
  8
HLR_VIEW_9
  6
CONTINUOUS
 62
         3
100
AcDbCircle
 10
7.4381727162
 20
7.5029727653
 30
9.3427145897
 40
0.2375
210
0.0
220
-0.8226729619911745
230
-0.5685149053531206
100
AcDbArc
 50
0.0000000001
 51
32.8144655509
  0
ARC
  5
75
100
AcDbEntity
  8
HLR_VIEW_9
  6
CONTINUOUS
 62
         3
100
AcDbCircle
 10
-7.4381727162
 20
7.5029727653
 30
-9.3857145897
 40
0.2375
210
0.0
220
0.8226729619911745
230
0.5685149053531206
100
AcDbArc
 50
187.5909261649
 51
352.4066757262
  0
LINE
  5
76
100
AcDbEntity
  8
HLR_VIEW_9
  6
CONTINUOUS
 62
         3
100
AcDbLine
 10
7.3442897947
 20
-12.0696995589
 30
0.9563529322
 11
7.2925756797
 21
-11.9335516332
 31
0.7593392458
  0
LINE
  5
77
100
AcDbEntity
  8
HLR_VIEW_9
  6
CONTINUOUS
 62
         3
100
AcDbLine
 10
7.5837697527
 20
-12.0402993137
 30
0.9138091281
 11
7.3442897947
 21
-12.0696995589
 31
0.9563529322
  0
LINE
  5
78
100
AcDbEntity
  8
HLR_VIEW_9
  6
CONTINUOUS
 62
         3
100
AcDbLine
 10
7.5320556378
 20
-11.904151388
 30
0.7167954417
 11
7.5837697527
 21
-12.0402993137
 31
0.9138091281
  0
LINE
  5
79
100
AcDbEntity
  8
HLR_VIEW_9
  6
CONTINUOUS
 62
         3
100
AcDbLine
 10
7.5320556378
 20
-11.904151388
 30
0.7167954417
 11
7.5320556378
 21
-11.9576251305
 31
0.6798419728
  0
LINE
  5
7A
100
AcDbEntity
  8
HLR_VIEW_9
  6
CONTINUOUS
 62
         3
100
AcDbLine
 10
7.2925756797
 20
-11.9335516332
 30
0.7593392458
 11
7.5320556378
 21
-11.904151388
 31
0.7167954417
  0
LINE
  5
7B
100
AcDbEntity
  8
HLR_VIEW_9
  6
CONTINUOUS
 62
         3
100
AcDbLine
 10
7.5320556378
 20
-11.9576251305
 30
0.6798419728
 11
7.3119820729
 21
-11.9846429103
 31
0.7189382158
  0
LINE
  5
7C
100
AcDbEntity
  8
HLR_VIEW_9
  6
CONTINUOUS
 62
         3
100
AcDbLine
 10
7.5643633596
 20
-12.0426817791
 30
0.802923715
 11
7.5320556378
 21
-11.9576251305
 31
0.6798419728
  0
ARC
  5
7D
100
AcDbEntity
  8
HLR_VIEW_9
  6
CONTINUOUS
 62
         3
100
AcDbCircle
 10
7.4381727162
 20
7.5029727653
 30
10.3497145897
 40
0.276
210
0.0
220
-0.8226729619911745
230
-0.5685149053531206
100
AcDbArc
 50
35.118598934
 51
180.0000000001
  0
ARC
  5
7E
100
AcDbEntity
  8
HLR_VIEW_9
  6
CONTINUOUS
 62
         3
100
AcDbCircle
 10
6.4921106751
 20
0.0
 30
14.5052846982
 40
0.315
210
0.0
220
-1.0
230
0.0
100
AcDbArc
 50
0.0
 51
90.0
  0
ARC
  5
7F
100
AcDbEntity
  8
HLR_VIEW_9
  6
CONTINUOUS
 62
         3
100
AcDbCircle
 10
6.4921106751
 20
0.0
 30
14.5052846982
 40
0.315
210
0.0
220
-1.0
230
0.0
100
AcDbArc
 50
90.0
 51
180.0
  0
ARC
  5
80
100
AcDbEntity
  8
HLR_VIEW_9
  6
CONTINUOUS
 62
         3
100
AcDbCircle
 10
-6.4921106751
 20
0.0
 30
-15.7392846982
 40
0.234
210
0.0
220
1.0
230
0.0
100
AcDbArc
 50
0.0
 51
90.0
  0
ARC
  5
81
100
AcDbEntity
  8
HLR_VIEW_9
  6
CONTINUOUS
 62
         3
100
AcDbCircle
 10
-6.4921106751
 20
0.0
 30
-15.7392846982
 40
0.234
210
0.0
220
1.0
230
0.0
100
AcDbArc
 50
90.0
 51
180.0
  0
ARC
  5
82
100
AcDbEntity
  8
HLR_VIEW_9
  6
CONTINUOUS
 62
         3
100
AcDbCircle
 10
-6.4921106751
 20
0.0
 30
-15.6992846982
 40
0.315
210
0.0
220
1.0
230
0.0
100
AcDbArc
 50
0.0
 51
90.0
  0
ARC
  5
83
100
AcDbEntity
  8
HLR_VIEW_9
  6
CONTINUOUS
 62
         3
100
AcDbCircle
 10
-6.4921106751
 20
0.0
 30
-15.6992846982
 40
0.315
210
0.0
220
1.0
230
0.0
100
AcDbArc
 50
90.0
 51
180.0
  0
ARC
  5
84
100
AcDbEntity
  8
HLR_VIEW_9
  6
CONTINUOUS
 62
         3
100
AcDbCircle
 10
-6.4921106751
 20
0.0
 30
-15.5122846982
 40
0.324
210
0.0
220
1.0
230
0.0
100
AcDbArc
 50
157.4689969843
 51
180.0
  0
ARC
  5
85
100
AcDbEntity
  8
HLR_VIEW_9
  6
CONTINUOUS
 62
         3
100
AcDbCircle
 10
6.4921106751
 20
0.0
 30
15.5912846982
 40
0.324
210
0.0
220
-1.0
230
0.0
100
AcDbArc
 50
0.0
 51
22.5310030157
  0
ARC
  5
86
100
AcDbEntity
  8
HLR_VIEW_9
  6
CONTINUOUS
 62
         3
100
AcDbCircle
 10
-6.4921106751
 20
0.0
 30
-14.6922846982
 40
0.324
210
0.0
220
1.0
230
0.0
100
AcDbArc
 50
157.4689969843
 51
180.0
  0
ARC
  5
87
100
AcDbEntity
  8
HLR_VIEW_9
  6
CONTINUOUS
 62
         3
100
AcDbCircle
 10
6.4921106751
 20
0.0
 30
14.6132846982
 40
0.324
210
0.0
220
-1.0
230
0.0
100
AcDbArc
 50
0.0
 51
22.5310030157
  0
LINE
  5
88
100
AcDbEntity
  8
HLR_VIEW_9
  6
CONTINUOUS
 62
         3
100
AcDbLine
 10
6.7681106751
 20
-15.5122846982
 30
0.0
 11
6.7681106751
 21
-14.6922846982
 31
0.0
  0
LINE
  5
89
100
AcDbEntity
  8
HLR_VIEW_9
  6
CONTINUOUS
 62
         3
100
AcDbLine
 10
6.1771106751
 20
-14.5052846982
 30
0.0
 11
6.1771106751
 21
-14.6132846982
 31
0.0
  0
LINE
  5
8A
100
AcDbEntity
  8
HLR_VIEW_9
  6
CONTINUOUS
 62
         3
100
AcDbLine
 10
6.8071106751
 20
-14.6132846982
 30
0.0
 11
6.8071106751
 21
-14.5052846982
 31
0.0
  0
LINE
  5
8B
100
AcDbEntity
  8
HLR_VIEW_9
  6
CONTINUOUS
 62
         3
100
AcDbLine
 10
6.7261106751
 20
-15.7392846982
 30
0.0
 11
6.7261106751
 21
-15.6992846982
 31
0.0
  0
LINE
  5
8C
100
AcDbEntity
  8
HLR_VIEW_9
  6
CONTINUOUS
 62
         3
100
AcDbLine
 10
6.2581106751
 20
-15.6992846982
 30
0.0
 11
6.2581106751
 21
-15.7392846982
 31
0.0
  0
LINE
  5
8D
100
AcDbEntity
  8
HLR_VIEW_9
  6
CONTINUOUS
 62
         3
100
AcDbLine
 10
6.8071106751
 20
-15.6992846982
 30
0.0
 11
6.8071106751
 21
-15.5912846982
 31
0.0
  0
LINE
  5
8E
100
AcDbEntity
  8
HLR_VIEW_9
  6
CONTINUOUS
 62
         3
100
AcDbLine
 10
6.1771106751
 20
-15.5912846982
 30
0.0
 11
6.1771106751
 21
-15.6992846982
 31
0.0
  0
LINE
  5
8F
100
AcDbEntity
  8
HLR_VIEW_9
  6
CONTINUOUS
 62
         3
100
AcDbLine
 10
6.8161106751
 20
-15.5912846982
 30
0.0
 11
6.8161106751
 21
-15.5122846982
 31
0.0
  0
LINE
  5
90
100
AcDbEntity
  8
HLR_VIEW_9
  6
CONTINUOUS
 62
         3
100
AcDbLine
 10
6.4008954785
 20
-15.5122846982
 30
0.849
 11
6.4008954785
 21
-14.6922846982
 31
0.849
  0
LINE
  5
91
100
AcDbEntity
  8
HLR_VIEW_9
  6
CONTINUOUS
 62
         3
100
AcDbLine
 10
6.1668954785
 20
-14.6922846982
 30
0.849
 11
6.1668954785
 21
-15.5122846982
 31
0.849
  0
LINE
  5
92
100
AcDbEntity
  8
HLR_VIEW_9
  6
CONTINUOUS
 62
         3
100
AcDbLine
 10
6.8161106751
 20
-14.6922846982
 30
0.0
 11
6.8161106751
 21
-14.6132846982
 31
0.0
  0
LINE
  5
93
100
AcDbEntity
  8
HLR_VIEW_9
  6
CONTINUOUS
 62
         3
100
AcDbLine
 10
6.7913805085
 20
-14.6922846982
 30
0.1241513866
 11
6.7913805085
 21
-14.6132846982
 31
0.1241513866
  0
LINE
  5
94
100
AcDbEntity
  8
HLR_VIEW_9
  6
CONTINUOUS
 62
         3
100
AcDbLine
 10
6.7913805085
 20
-14.6132846982
 30
0.1241513866
 11
6.1611034851
 21
-14.6132846982
 31
1.6434489557
  0
LINE
  5
95
100
AcDbEntity
  8
HLR_VIEW_9
  6
CONTINUOUS
 62
         3
100
AcDbLine
 10
5.5456106751
 20
-14.6922846982
 30
1.682
 11
5.5456106751
 21
-14.6132846982
 31
1.682
  0
LINE
  5
96
100
AcDbEntity
  8
HLR_VIEW_9
  6
CONTINUOUS
 62
         3
100
AcDbLine
 10
5.4831106751
 20
-14.6132846982
 30
1.6195
 11
5.4831106751
 21
-14.6922846982
 31
1.6195
  0
ARC
  5
97
100
AcDbEntity
  8
HLR_VIEW_9
  6
CONTINUOUS
 62
         3
100
AcDbCircle
 10
5.5456106751
 20
1.6195
 30
14.6132846982
 40
0.0625
210
0.0
220
-1.0
230
0.0
100
AcDbArc
 50
90.0
 51
180.0
  0
ARC
  5
98
100
AcDbEntity
  8
HLR_VIEW_9
  6
CONTINUOUS
 62
         3
100
AcDbCircle
 10
-5.5456106751
 20
1.6195
 30
-14.6922846982
 40
0.0625
210
0.0
220
1.0
230
0.0
100
AcDbArc
 50
0.0
 51
90.0
  0
LINE
  5
99
100
AcDbEntity
  8
HLR_VIEW_9
  6
CONTINUOUS
 62
         3
100
AcDbLine
 10
6.1611034851
 20
-14.6922846982
 30
1.6434489557
 11
6.1611034851
 21
-14.6132846982
 31
1.6434489557
  0
LINE
  5
9A
100
AcDbEntity
  8
HLR_VIEW_9
  6
CONTINUOUS
 62
         3
100
AcDbLine
 10
6.1033739648
 20
-14.6132846982
 30
1.682
 11
6.1033739648
 21
-14.6922846982
 31
1.682
  0
ARC
  5
9B
100
AcDbEntity
  8
HLR_VIEW_9
  6
CONTINUOUS
 62
         3
100
AcDbCircle
 10
6.1033739648
 20
1.6195
 30
14.6132846982
 40
0.0625
210
0.0
220
-1.0
230
0.0
100
AcDbArc
 50
22.5310030145
 51
90.0000000012
  0
ARC
  5
9C
100
AcDbEntity
  8
HLR_VIEW_9
  6
CONTINUOUS
 62
         3
100
AcDbCircle
 10
-6.1033739648
 20
1.6195
 30
-14.6922846982
 40
0.0625
210
0.0
220
1.0
230
0.0
100
AcDbArc
 50
89.9999999988
 51
157.4689969855
  0
LINE
  5
9D
100
AcDbEntity
  8
HLR_VIEW_9
  6
CONTINUOUS
 62
         3
100
AcDbLine
 10
6.1033739648
 20
-14.6132846982
 30
1.682
 11
5.5456106751
 21
-14.6132846982
 31
1.682
  0
LINE
  5
9E
100
AcDbEntity
  8
HLR_VIEW_9
  6
CONTINUOUS
 62
         3
100
AcDbLine
 10
5.5456106751
 20
-14.6922846982
 30
1.682
 11
6.1033739648
 21
-14.6922846982
 31
1.682
  0
LINE
  5
9F
100
AcDbEntity
  8
HLR_VIEW_9
  6
CONTINUOUS
 62
         3
100
AcDbLine
 10
6.1611034851
 20
-14.6922846982
 30
1.6434489557
 11
6.7913805085
 21
-14.6922846982
 31
0.1241513866
  0
ARC
  5
A0
100
AcDbEntity
  8
HLR_VIEW_9
  6
CONTINUOUS
 62
         3
100
AcDbCircle
 10
5.5456106751
 20
1.6195
 30
15.5912846982
 40
0.0625
210
0.0
220
-1.0
230
0.0
100
AcDbArc
 50
90.0
 51
180.0
  0
ARC
  5
A1
100
AcDbEntity
  8
HLR_VIEW_9
  6
CONTINUOUS
 62
         3
100
AcDbCircle
 10
6.1033739648
 20
1.6195
 30
15.5912846982
 40
0.0625
210
0.0
220
-1.0
230
0.0
100
AcDbArc
 50
22.5310030145
 51
90.0000000012
  0
LINE
  5
A2
100
AcDbEntity
  8
HLR_VIEW_9
  6
CONTINUOUS
 62
         3
100
AcDbLine
 10
5.4831106751
 20
-15.5912846982
 30
1.6195
 11
5.4831106751
 21
-15.5122846982
 31
1.6195
  0
LINE
  5
A3
100
AcDbEntity
  8
HLR_VIEW_9
  6
CONTINUOUS
 62
         3
100
AcDbLine
 10
5.5456106751
 20
-15.5122846982
 30
1.682
 11
5.5456106751
 21
-15.5912846982
 31
1.682
  0
LINE
  5
A4
100
AcDbEntity
  8
HLR_VIEW_9
  6
CONTINUOUS
 62
         3
100
AcDbLine
 10
6.1033739648
 20
-15.5912846982
 30
1.682
 11
5.5456106751
 21
-15.5912846982
 31
1.682
  0
LINE
  5
A5
100
AcDbEntity
  8
HLR_VIEW_9
  6
CONTINUOUS
 62
         3
100
AcDbLine
 10
6.1033739648
 20
-15.5912846982
 30
1.682
 11
6.1033739648
 21
-15.5122846982
 31
1.682
  0
LINE
  5
A6
100
AcDbEntity
  8
HLR_VIEW_9
  6
CONTINUOUS
 62
         3
100
AcDbLine
 10
6.1611034851
 20
-15.5122846982
 30
1.6434489557
 11
6.1611034851
 21
-15.5912846982
 31
1.6434489557
  0
LINE
  5
A7
100
AcDbEntity
  8
HLR_VIEW_9
  6
CONTINUOUS
 62
         3
100
AcDbLine
 10
6.7913805085
 20
-15.5912846982
 30
0.1241513866
 11
6.1611034851
 21
-15.5912846982
 31
1.6434489557
  0
ARC
  5
A8
100
AcDbEntity
  8
HLR_VIEW_9
  6
CONTINUOUS
 62
         3
100
AcDbCircle
 10
-5.5456106751
 20
1.6195
 30
-15.5122846982
 40
0.0625
210
0.0
220
1.0
230
0.0
100
AcDbArc
 50
0.0
 51
90.0
  0
LINE
  5
A9
100
AcDbEntity
  8
HLR_VIEW_9
  6
CONTINUOUS
 62
         3
100
AcDbLine
 10
5.5456106751
 20
-15.5122846982
 30
1.682
 11
6.1033739648
 21
-15.5122846982
 31
1.682
  0
ARC
  5
AA
100
AcDbEntity
  8
HLR_VIEW_9
  6
CONTINUOUS
 62
         3
100
AcDbCircle
 10
-6.1033739648
 20
1.6195
 30
-15.5122846982
 40
0.0625
210
0.0
220
1.0
230
0.0
100
AcDbArc
 50
89.9999999988
 51
157.4689969855
  0
LINE
  5
AB
100
AcDbEntity
  8
HLR_VIEW_9
  6
CONTINUOUS
 62
         3
100
AcDbLine
 10
6.1611034851
 20
-15.5122846982
 30
1.6434489557
 11
6.7913805085
 21
-15.5122846982
 31
0.1241513866
  0
LINE
  5
AC
100
AcDbEntity
  8
HLR_VIEW_9
  6
CONTINUOUS
 62
         3
100
AcDbLine
 10
6.7913805085
 20
-15.5122846982
 30
0.1241513866
 11
6.7913805085
 21
-15.5912846982
 31
0.1241513866
  0
LINE
  5
AD
100
AcDbEntity
  8
HLR_VIEW_9
  6
CONTINUOUS
 62
         3
100
AcDbLine
 10
6.1033739648
 20
-14.8082846982
 30
1.59
 11
5.5456106751
 21
-14.6922846982
 31
1.59
  0
LINE
  5
AE
100
AcDbEntity
  8
HLR_VIEW_9
  6
CONTINUOUS
 62
         3
100
AcDbLine
 10
6.1033739648
 20
-14.6922846982
 30
1.59
 11
6.1033739648
 21
-14.8082846982
 31
1.59
  0
LINE
  5
AF
100
AcDbEntity
  8
HLR_VIEW_9
  6
CONTINUOUS
 62
         3
100
AcDbLine
 10
6.1033739648
 20
-15.5122846982
 30
1.59
 11
6.1033739648
 21
-15.3962846982
 31
1.59
  0
LINE
  5
B0
100
AcDbEntity
  8
HLR_VIEW_9
  6
CONTINUOUS
 62
         3
100
AcDbLine
 10
6.1033739648
 20
-15.3962846982
 30
1.59
 11
5.5456106751
 21
-15.5122846982
 31
1.59
  0
ARC
  5
B1
100
AcDbEntity
  8
HLR_VIEW_9
  6
CONTINUOUS
 62
         3
100
AcDbCircle
 10
-1.3386106751
 20
-12.0177846982
 30
0.469
 40
0.156
210
0.0
220
0.0
230
-1.0
100
AcDbArc
 50
353.2556007031
 51
360.0
  0
ARC
  5
B2
100
AcDbEntity
  8
HLR_VIEW_9
  6
CONTINUOUS
 62
         3
100
AcDbCircle
 10
-1.3386106751
 20
-12.0177846982
 30
0.469
 40
0.156
210
0.0
220
0.0
230
-1.0
100
AcDbArc
 50
263.2556007031
 51
276.7443992969
  0
ARC
  5
B3
100
AcDbEntity
  8
HLR_VIEW_9
  6
CONTINUOUS
 62
         3
100
AcDbCircle
 10
-1.3386106751
 20
-12.0177846982
 30
0.469
 40
0.156
210
0.0
220
0.0
230
-1.0
100
AcDbArc
 50
173.2556007031
 51
186.7443992969
  0
ARC
  5
B4
100
AcDbEntity
  8
HLR_VIEW_9
  6
CONTINUOUS
 62
         3
100
AcDbCircle
 10
-1.3386106751
 20
-12.0177846982
 30
0.469
 40
0.156
210
0.0
220
0.0
230
-1.0
100
AcDbArc
 50
83.2556007031
 51
96.7443992969
  0
ARC
  5
B5
100
AcDbEntity
  8
HLR_VIEW_9
  6
CONTINUOUS
 62
         3
100
AcDbCircle
 10
-1.3386106751
 20
-12.0177846982
 30
0.469
 40
0.156
210
0.0
220
0.0
230
-1.0
100
AcDbArc
 50
0.0
 51
6.7443992969
  0
ARC
  5
B6
100
AcDbEntity
  8
HLR_VIEW_9
  6
CONTINUOUS
 62
         3
100
AcDbCircle
 10
-1.3386106751
 20
-12.0177846982
 30
-0.509
 40
0.324
210
0.0
220
0.0
230
-1.0
100
AcDbArc
 50
67.4689969867
 51
112.5310030133
  0
LINE
  5
B7
100
AcDbEntity
  8
HLR_VIEW_9
  6
CONTINUOUS
 62
         3
100
AcDbLine
 10
1.4627620617
 20
-11.7185148647
 30
0.509
 11
2.9820596308
 21
-12.3487918881
 31
0.509
  0
ARC
  5
B8
100
AcDbEntity
  8
HLR_VIEW_9
  6
CONTINUOUS
 62
         3
100
AcDbCircle
 10
-2.9581106751
 20
-12.9642846982
 30
-0.509
 40
0.0625
210
0.0
220
0.0
230
-1.0
100
AcDbArc
 50
180.0
 51
270.0
  0
ARC
  5
B9
100
AcDbEntity
  8
HLR_VIEW_9
  6
CONTINUOUS
 62
         3
100
AcDbCircle
 10
-2.9581106751
 20
-12.4065214084
 30
-0.509
 40
0.0625
210
0.0
220
0.0
230
-1.0
100
AcDbArc
 50
112.5310030145
 51
180.0000000012
  0
ARC
  5
BA
100
AcDbEntity
  8
HLR_VIEW_9
  6
CONTINUOUS
 62
         3
100
AcDbCircle
 10
0.2808893249
 20
-12.4065214084
 30
-0.509
 40
0.0625
210
0.0
220
0.0
230
-1.0
100
AcDbArc
 50
359.9999999988
 51
427.4689969855
  0
ARC
  5
BB
100
AcDbEntity
  8
HLR_VIEW_9
  6
CONTINUOUS
 62
         3
100
AcDbCircle
 10
0.2808893249
 20
-12.9642846982
 30
-0.509
 40
0.0625
210
0.0
220
0.0
230
-1.0
100
AcDbArc
 50
270.0
 51
360.0
  0
LINE
  5
BC
100
AcDbEntity
  8
HLR_VIEW_9
  6
CONTINUOUS
 62
         3
100
AcDbLine
 10
-0.3433893249
 20
-12.9642846982
 30
0.509
 11
-0.3433893249
 21
-12.4065214084
 31
0.509
  0
LINE
  5
BD
100
AcDbEntity
  8
HLR_VIEW_9
  6
CONTINUOUS
 62
         3
100
AcDbLine
 10
2.9581106751
 20
-13.0267846982
 30
0.509
 11
-0.2808893249
 21
-13.0267846982
 31
0.509
  0
LINE
  5
BE
100
AcDbEntity
  8
HLR_VIEW_9
  6
CONTINUOUS
 62
         3
100
AcDbLine
 10
-0.3048382807
 20
-12.3487918881
 30
0.509
 11
1.2144592885
 21
-11.7185148647
 31
0.509
  0
LINE
  5
BF
100
AcDbEntity
  8
HLR_VIEW_9
  6
CONTINUOUS
 62
         3
100
AcDbLine
 10
3.0206106751
 20
-12.4065214084
 30
0.509
 11
3.0206106751
 21
-12.9642846982
 31
0.509
  0
CIRCLE
  5
C0
100
AcDbEntity
  8
HLR_VIEW_9
  6
CONTINUOUS
 62
         3
100
AcDbCircle
 10
-0.4896106751
 20
-12.2259998947
 30
-0.509
 40
0.0575
210
0.0
220
0.0
230
-1.0
  0
CIRCLE
  5
C1
100
AcDbEntity
  8
HLR_VIEW_9
  6
CONTINUOUS
 62
         3
100
AcDbCircle
 10
-2.1876106751
 20
-12.2259998947
 30
-0.509
 40
0.0575
210
0.0
220
0.0
230
-1.0
  0
CIRCLE
  5
C2
100
AcDbEntity
  8
HLR_VIEW_9
  6
CONTINUOUS
 62
         3
100
AcDbCircle
 10
-1.3386106751
 20
-12.0177846982
 30
-0.617
 40
0.315
210
0.0
220
0.0
230
-1.0
  0
CIRCLE
  5
C3
100
AcDbEntity
  8
HLR_VIEW_9
  6
CONTINUOUS
 62
         3
100
AcDbCircle
 10
-1.3386106751
 20
-12.0177846982
 30
-0.617
 40
0.2375
210
0.0
220
0.0
230
-1.0
  0
LINE
  5
C4
100
AcDbEntity
  8
HLR_VIEW_9
  6
CONTINUOUS
 62
         3
100
AcDbLine
 10
1.5118518365
 20
-12.0177846982
 30
0.574
 11
1.3386106751
 21
-12.1910258595
 31
0.574
  0
LINE
  5
C5
100
AcDbEntity
  8
HLR_VIEW_9
  6
CONTINUOUS
 62
         3
100
AcDbLine
 10
1.3386106751
 20
-11.8445435368
 30
0.574
 11
1.5118518365
 21
-12.0177846982
 31
0.574
  0
LINE
  5
C6
100
AcDbEntity
  8
HLR_VIEW_9
  6
CONTINUOUS
 62
         3
100
AcDbLine
 10
1.3386106751
 20
-12.1910258595
 30
0.574
 11
1.1653695137
 21
-12.0177846982
 31
0.574
  0
LINE
  5
C7
100
AcDbEntity
  8
HLR_VIEW_9
  6
CONTINUOUS
 62
         3
100
AcDbLine
 10
1.1653695137
 20
-12.0177846982
 30
0.574
 11
1.3386106751
 21
-11.8445435368
 31
0.574
  0
ARC
  5
C8
100
AcDbEntity
  8
HLR_VIEW_9
  6
CONTINUOUS
 62
         3
100
AcDbCircle
 10
1.3386106751
 20
-0.3425
 30
14.5052846982
 40
0.315
210
0.0
220
-1.0
230
0.0
100
AcDbArc
 50
0.0
 51
180.0
  0
ARC
  5
C9
100
AcDbEntity
  8
HLR_VIEW_9
  6
CONTINUOUS
 62
         3
100
AcDbCircle
 10
-1.3386106751
 20
-0.3425
 30
-15.7392846982
 40
0.234
210
0.0
220
1.0
230
0.0
100
AcDbArc
 50
0.0
 51
180.0
  0
ARC
  5
CA
100
AcDbEntity
  8
HLR_VIEW_9
  6
CONTINUOUS
 62
         3
100
AcDbCircle
 10
-1.3386106751
 20
-0.3425
 30
-15.6992846982
 40
0.315
210
0.0
220
1.0
230
0.0
100
AcDbArc
 50
0.0
 51
180.0
  0
LINE
  5
CB
100
AcDbEntity
  8
HLR_VIEW_9
  6
CONTINUOUS
 62
         3
100
AcDbLine
 10
1.6146106751
 20
-15.5122846982
 30
-0.3425
 11
1.6146106751
 21
-14.6922846982
 31
-0.3425
  0
LINE
  5
CC
100
AcDbEntity
  8
HLR_VIEW_9
  6
CONTINUOUS
 62
         3
100
AcDbLine
 10
1.0626106751
 20
-14.6922846982
 30
-0.3425
 11
1.0626106751
 21
-15.5122846982
 31
-0.3425
  0
LINE
  5
CD
100
AcDbEntity
  8
HLR_VIEW_9
  6
CONTINUOUS
 62
         3
100
AcDbLine
 10
1.0236106751
 20
-14.5052846982
 30
-0.3425
 11
1.0236106751
 21
-14.6132846982
 31
-0.3425
  0
LINE
  5
CE
100
AcDbEntity
  8
HLR_VIEW_9
  6
CONTINUOUS
 62
         3
100
AcDbLine
 10
1.6536106751
 20
-14.6132846982
 30
-0.3425
 11
1.6536106751
 21
-14.5052846982
 31
-0.3425
  0
LINE
  5
CF
100
AcDbEntity
  8
HLR_VIEW_9
  6
CONTINUOUS
 62
         3
100
AcDbLine
 10
1.5726106751
 20
-15.7392846982
 30
-0.3425
 11
1.5726106751
 21
-15.6992846982
 31
-0.3425
  0
LINE
  5
D0
100
AcDbEntity
  8
HLR_VIEW_9
  6
CONTINUOUS
 62
         3
100
AcDbLine
 10
1.1046106751
 20
-15.6992846982
 30
-0.3425
 11
1.1046106751
 21
-15.7392846982
 31
-0.3425
  0
LINE
  5
D1
100
AcDbEntity
  8
HLR_VIEW_9
  6
CONTINUOUS
 62
         3
100
AcDbLine
 10
1.6536106751
 20
-15.6992846982
 30
-0.3425
 11
1.6536106751
 21
-15.5912846982
 31
-0.3425
  0
LINE
  5
D2
100
AcDbEntity
  8
HLR_VIEW_9
  6
CONTINUOUS
 62
         3
100
AcDbLine
 10
1.0236106751
 20
-15.5912846982
 30
-0.3425
 11
1.0236106751
 21
-15.6992846982
 31
-0.3425
  0
LINE
  5
D3
100
AcDbEntity
  8
HLR_VIEW_9
  6
CONTINUOUS
 62
         3
100
AcDbLine
 10
2.3046106751
 20
-15.5122846982
 30
-0.1342848034
 11
2.3046106751
 21
-14.6922846982
 31
-0.1342848034
  0
LINE
  5
D4
100
AcDbEntity
  8
HLR_VIEW_9
  6
CONTINUOUS
 62
         3
100
AcDbLine
 10
2.0706106751
 20
-14.6922846982
 30
-0.1342848034
 11
2.0706106751
 21
-15.5122846982
 31
-0.1342848034
  0
LINE
  5
D5
100
AcDbEntity
  8
HLR_VIEW_9
  6
CONTINUOUS
 62
         3
100
AcDbLine
 10
0.6066106751
 20
-15.5122846982
 30
-0.1342848034
 11
0.6066106751
 21
-14.6922846982
 31
-0.1342848034
  0
LINE
  5
D6
100
AcDbEntity
  8
HLR_VIEW_9
  6
CONTINUOUS
 62
         3
100
AcDbLine
 10
0.3726106751
 20
-14.6922846982
 30
-0.1342848034
 11
0.3726106751
 21
-15.5122846982
 31
-0.1342848034
  0
LINE
  5
D7
100
AcDbEntity
  8
HLR_VIEW_9
  6
CONTINUOUS
 62
         3
100
AcDbLine
 10
3.0206106751
 20
-14.6922846982
 30
0.604
 11
3.0206106751
 21
-14.6132846982
 31
0.604
  0
LINE
  5
D8
100
AcDbEntity
  8
HLR_VIEW_9
  6
CONTINUOUS
 62
         3
100
AcDbLine
 10
2.9581106751
 20
-14.6132846982
 30
0.6665
 11
2.9581106751
 21
-14.6922846982
 31
0.6665
  0
ARC
  5
D9
100
AcDbEntity
  8
HLR_VIEW_9
  6
CONTINUOUS
 62
         3
100
AcDbCircle
 10
2.9581106751
 20
0.604
 30
14.6132846982
 40
0.0625
210
0.0
220
-1.0
230
0.0
100
AcDbArc
 50
0.0
 51
90.0
  0
ARC
  5
DA
100
AcDbEntity
  8
HLR_VIEW_9
  6
CONTINUOUS
 62
         3
100
AcDbCircle
 10
-2.9581106751
 20
0.604
 30
-14.6922846982
 40
0.0625
210
0.0
220
1.0
230
0.0
100
AcDbArc
 50
90.0
 51
180.0
  0
LINE
  5
DB
100
AcDbEntity
  8
HLR_VIEW_9
  6
CONTINUOUS
 62
         3
100
AcDbLine
 10
-0.2808893249
 20
-14.6922846982
 30
0.6665
 11
-0.2808893249
 21
-14.6132846982
 31
0.6665
  0
LINE
  5
DC
100
AcDbEntity
  8
HLR_VIEW_9
  6
CONTINUOUS
 62
         3
100
AcDbLine
 10
-0.3433893249
 20
-14.6132846982
 30
0.604
 11
-0.3433893249
 21
-14.6922846982
 31
0.604
  0
ARC
  5
DD
100
AcDbEntity
  8
HLR_VIEW_9
  6
CONTINUOUS
 62
         3
100
AcDbCircle
 10
-0.2808893249
 20
0.604
 30
14.6132846982
 40
0.0625
210
0.0
220
-1.0
230
0.0
100
AcDbArc
 50
90.0
 51
180.0
  0
ARC
  5
DE
100
AcDbEntity
  8
HLR_VIEW_9
  6
CONTINUOUS
 62
         3
100
AcDbCircle
 10
0.2808893249
 20
0.604
 30
-14.6922846982
 40
0.0625
210
0.0
220
1.0
230
0.0
100
AcDbArc
 50
0.0
 51
90.0
  0
LINE
  5
DF
100
AcDbEntity
  8
HLR_VIEW_9
  6
CONTINUOUS
 62
         3
100
AcDbLine
 10
2.9581106751
 20
-14.6132846982
 30
0.6665
 11
-0.2808893249
 21
-14.6132846982
 31
0.6665
  0
LINE
  5
E0
100
AcDbEntity
  8
HLR_VIEW_9
  6
CONTINUOUS
 62
         3
100
AcDbLine
 10
-0.2808893249
 20
-14.6922846982
 30
0.6665
 11
2.9581106751
 21
-14.6922846982
 31
0.6665
  0
ARC
  5
E1
100
AcDbEntity
  8
HLR_VIEW_9
  6
CONTINUOUS
 62
         3
100
AcDbCircle
 10
2.9581106751
 20
0.604
 30
15.5912846982
 40
0.0625
210
0.0
220
-1.0
230
0.0
100
AcDbArc
 50
0.0
 51
90.0
  0
LINE
  5
E2
100
AcDbEntity
  8
HLR_VIEW_9
  6
CONTINUOUS
 62
         3
100
AcDbLine
 10
2.9581106751
 20
-15.5912846982
 30
0.6665
 11
2.9581106751
 21
-15.5122846982
 31
0.6665
  0
LINE
  5
E3
100
AcDbEntity
  8
HLR_VIEW_9
  6
CONTINUOUS
 62
         3
100
AcDbLine
 10
3.0206106751
 20
-15.5122846982
 30
0.604
 11
3.0206106751
 21
-15.5912846982
 31
0.604
  0
LINE
  5
E4
100
AcDbEntity
  8
HLR_VIEW_9
  6
CONTINUOUS
 62
         3
100
AcDbLine
 10
2.9581106751
 20
-15.5912846982
 30
0.6665
 11
-0.2808893249
 21
-15.5912846982
 31
0.6665
  0
ARC
  5
E5
100
AcDbEntity
  8
HLR_VIEW_9
  6
CONTINUOUS
 62
         3
100
AcDbCircle
 10
-2.9581106751
 20
0.604
 30
-15.5122846982
 40
0.0625
210
0.0
220
1.0
230
0.0
100
AcDbArc
 50
90.0
 51
180.0
  0
LINE
  5
E6
100
AcDbEntity
  8
HLR_VIEW_9
  6
CONTINUOUS
 62
         3
100
AcDbLine
 10
-0.2808893249
 20
-15.5122846982
 30
0.6665
 11
2.9581106751
 21
-15.5122846982
 31
0.6665
  0
ARC
  5
E7
100
AcDbEntity
  8
HLR_VIEW_9
  6
CONTINUOUS
 62
         3
100
AcDbCircle
 10
-0.2808893249
 20
0.604
 30
15.5912846982
 40
0.0625
210
0.0
220
-1.0
230
0.0
100
AcDbArc
 50
90.0
 51
180.0
  0
LINE
  5
E8
100
AcDbEntity
  8
HLR_VIEW_9
  6
CONTINUOUS
 62
         3
100
AcDbLine
 10
-0.2808893249
 20
-15.5122846982
 30
0.6665
 11
-0.2808893249
 21
-15.5912846982
 31
0.6665
  0
LINE
  5
E9
100
AcDbEntity
  8
HLR_VIEW_9
  6
CONTINUOUS
 62
         3
100
AcDbLine
 10
-0.3433893249
 20
-15.5912846982
 30
0.604
 11
-0.3433893249
 21
-15.5122846982
 31
0.604
  0
ARC
  5
EA
100
AcDbEntity
  8
HLR_VIEW_9
  6
CONTINUOUS
 62
         3
100
AcDbCircle
 10
0.2808893249
 20
0.604
 30
-15.5122846982
 40
0.0625
210
0.0
220
1.0
230
0.0
100
AcDbArc
 50
0.0
 51
90.0
  0
LINE
  5
EB
100
AcDbEntity
  8
HLR_VIEW_9
  6
CONTINUOUS
 62
         3
100
AcDbLine
 10
2.9286106751
 20
-14.8082846982
 30
0.0462367103
 11
2.9286106751
 21
-14.6922846982
 31
0.604
  0
LINE
  5
EC
100
AcDbEntity
  8
HLR_VIEW_9
  6
CONTINUOUS
 62
         3
100
AcDbLine
 10
2.9286106751
 20
-14.8082846982
 30
0.0462367103
 11
2.8636106751
 21
-14.8082846982
 31
0.0462367103
  0
LINE
  5
ED
100
AcDbEntity
  8
HLR_VIEW_9
  6
CONTINUOUS
 62
         3
100
AcDbLine
 10
2.8636106751
 20
-14.6922846982
 30
0.604
 11
2.8636106751
 21
-14.8082846982
 31
0.0462367103
  0
LINE
  5
EE
100
AcDbEntity
  8
HLR_VIEW_9
  6
CONTINUOUS
 62
         3
100
AcDbLine
 10
2.9286106751
 20
-15.3962846982
 30
0.0462367103
 11
2.8636106751
 21
-15.3962846982
 31
0.0462367103
  0
LINE
  5
EF
100
AcDbEntity
  8
HLR_VIEW_9
  6
CONTINUOUS
 62
         3
100
AcDbLine
 10
2.8636106751
 20
-15.5122846982
 30
0.604
 11
2.8636106751
 21
-15.3962846982
 31
0.0462367103
  0
LINE
  5
F0
100
AcDbEntity
  8
HLR_VIEW_9
  6
CONTINUOUS
 62
         3
100
AcDbLine
 10
2.9286106751
 20
-15.3962846982
 30
0.0462367103
 11
2.9286106751
 21
-15.5122846982
 31
0.604
  0
LINE
  5
F1
100
AcDbEntity
  8
HLR_VIEW_9
  6
CONTINUOUS
 62
         3
100
AcDbLine
 10
-0.2513893249
 20
-14.8082846982
 30
0.0462367103
 11
-0.1863893249
 21
-14.8082846982
 31
0.0462367103
  0
LINE
  5
F2
100
AcDbEntity
  8
HLR_VIEW_9
  6
CONTINUOUS
 62
         3
100
AcDbLine
 10
-0.1863893249
 20
-14.6922846982
 30
0.604
 11
-0.1863893249
 21
-14.8082846982
 31
0.0462367103
  0
LINE
  5
F3
100
AcDbEntity
  8
HLR_VIEW_9
  6
CONTINUOUS
 62
         3
100
AcDbLine
 10
-0.2513893249
 20
-14.8082846982
 30
0.0462367103
 11
-0.2513893249
 21
-14.6922846982
 31
0.604
  0
LINE
  5
F4
100
AcDbEntity
  8
HLR_VIEW_9
  6
CONTINUOUS
 62
         3
100
AcDbLine
 10
-0.2513893249
 20
-15.3962846982
 30
0.0462367103
 11
-0.1863893249
 21
-15.3962846982
 31
0.0462367103
  0
LINE
  5
F5
100
AcDbEntity
  8
HLR_VIEW_9
  6
CONTINUOUS
 62
         3
100
AcDbLine
 10
-0.1863893249
 20
-15.5122846982
 30
0.604
 11
-0.1863893249
 21
-15.3962846982
 31
0.0462367103
  0
LINE
  5
F6
100
AcDbEntity
  8
HLR_VIEW_9
  6
CONTINUOUS
 62
         3
100
AcDbLine
 10
-0.2513893249
 20
-15.3962846982
 30
0.0462367103
 11
-0.2513893249
 21
-15.5122846982
 31
0.604
  0
DIMENSION
  5
FA
100
AcDbEntity
  8
HLR_VIEW_9
  6
CONTINUOUS
 62
         6
100
AcDbDimension
  2
*D0
 10
4.1047781813
 20
-14.6132846982
 30
0.0
 11
3.5422781813
 21
-14.9922891259
 31
0.0
  3
DIMSTYLE1
100
AcDbAlignedDimension
 13
3.0206106751
 23
-14.6132846982
 33
0.0
 14
3.0206106751
 24
-15.5912846982
 34
0.0
 50
90.0
100
AcDbRotatedDimension
  0
TEXT
  5
108
100
AcDbEntity
  8
HLR_VIEW_9
  6
CONTINUOUS
 62
         6
100
AcDbText
 10
4.1876041943
 20
-16.2293593763
 30
0.0
 40
0.2
  1
IZK20
100
AcDbText
  0
DIMENSION
  5
10B
100
AcDbEntity
  8
HLR_VIEW_9
  6
CONTINUOUS
 62
         6
100
AcDbDimension
  2
*D1
 10
7.5647898385
 20
-14.5052846982
 30
0.0
 11
7.0022898385
 21
-15.0420026316
 31
0.0
  3
DIMSTYLE1
100
AcDbAlignedDimension
 13
6.8071106751
 23
-14.5052846982
 33
0.0
 14
6.8071106751
 24
-15.6992846982
 34
0.0
 50
90.0
100
AcDbRotatedDimension
  0
DIMENSION
  5
11A
100
AcDbEntity
  8
HLR_VIEW_9
  6
CONTINUOUS
 62
         6
100
AcDbDimension
  2
*D2
 10
3.9911473111
 20
-13.0267846982
 30
0.0
 11
3.4286473111
 21
-12.320591631
 31
0.0
  3
DIMSTYLE1
100
AcDbAlignedDimension
 13
2.9581106751
 23
-13.0267846982
 33
0.0
 14
1.3386106751
 24
-11.6937846982
 34
0.0
 50
90.0
100
AcDbRotatedDimension
  0
DIMENSION
  5
129
100
AcDbEntity
  8
HLR_VIEW_9
  6
CONTINUOUS
 62
         6
100
AcDbDimension
  2
*D3
 10
-0.3433893249
 20
-13.7287640034
 30
0.0
 11
0.8009334366
 21
-13.6912640034
 31
0.0
  3
DIMSTYLE1
100
AcDbAlignedDimension
 13
-0.3433893249
 23
-12.9642846982
 33
0.0
 14
3.0206106751
 24
-12.9642846982
 34
0.0
100
AcDbRotatedDimension
  0
INSERT
  5
13F
100
AcDbEntity
  8
0
  6
CONTINUOUS
100
AcDbBlockReference
  2
GENDIM6
 10
0.0
 20
0.0
 30
0.0
  0
ENDSEC
  0
SECTION
  2
OBJECTS
  0
DICTIONARY
  5
19
100
AcDbDictionary
  3
ACAD_GROUP
350
1A
  3
ACAD_MLINESTYLE
350
1B
  0
DICTIONARY
  5
1A
102
{ACAD_REACTORS
330
19
102
}
100
AcDbDictionary
  0
DICTIONARY
  5
1B
102
{ACAD_REACTORS
330
19
102
}
100
AcDbDictionary
  3
STANDARD
350
1C
  0
MLINESTYLE
  5
1C
102
{ACAD_REACTORS
330
1B
102
}
100
AcDbMlineStyle
  2
STANDARD
 70
         0
  3

 62
         0
 51
90.0
 52
90.0
 71
         2
 49
0.5
 62
       256
  6
BYLAYER
 49
-0.5
 62
       256
  6
BYLAYER
  0
ENDSEC
  0
EOF
